<?xml version="1.0" standalone="no"?>
<!DOCTYPE svg PUBLIC "-//W3C//DTD SVG 1.1//EN" "http://www.w3.org/Graphics/SVG/1.1/DTD/svg11.dtd" >
<svg xmlns="http://www.w3.org/2000/svg">
<metadata>Generated by IcoMoon</metadata>
<defs>
<font id="dashicons-wu" horiz-adv-x="1024">
<font-face units-per-em="1024" ascent="960" descent="-64" />
<missing-glyph horiz-adv-x="1024" />
<glyph unicode="&#x20;" horiz-adv-x="512" d="" />
<glyph unicode="&#xe900;" glyph-name="wp-ultimo" d="M449.596 520.54l298.164 452.259-205.003-486.084zM576.058 401.060l-298.164-452.259 205.003 486.078zM449.596 518.062l33.264-81.405 93.562-34.064-33.782 81.916zM675.596 707.319c81.839-53.459 135.918-145.876 135.918-250.924 0-165.419-134.095-299.505-299.515-299.505-17.015 0-33.68 1.418-49.919 4.142l46.341 73.799c2.316-0.075 4.644-0.115 6.976-0.115 120.699 0 218.542 97.844 218.542 218.542 0 72.598-35.4 136.937-89.878 176.679zM512 755.901c17.725 0 35.096-1.539 51.98-4.495l-51.136-79.621-1.175-0.018c-118.978-1.985-214.82-99.059-214.82-218.504 0-69.318 32.265-131.096 82.617-171.137l-31.303-76.495c-81.704 53.485-135.677 145.835-135.677 250.763 0 165.419 134.095 299.505 299.515 299.505z" />
<glyph unicode="&#xe901;" glyph-name="add-to-list" d="M993.28 512h-174.080v174.080c0 30.72-20.48 30.72-51.2 30.72s-51.2 0-51.2-30.72v-174.080h-174.080c-30.72 0-30.72-20.48-30.72-51.2s0-51.2 30.72-51.2h174.080v-174.080c0-30.72 20.48-30.72 51.2-30.72s51.2 0 51.2 30.72v174.080h174.080c30.72 0 30.72 20.48 30.72 51.2s0 51.2-30.72 51.2zM378.88 512h-348.16c-30.72 0-30.72-20.48-30.72-51.2s0-51.2 30.72-51.2h348.16c30.72 0 30.72 20.48 30.72 51.2s0 51.2-30.72 51.2zM378.88 256h-348.16c-30.72 0-30.72-20.48-30.72-51.2s0-51.2 30.72-51.2h348.16c30.72 0 30.72 20.48 30.72 51.2s0 51.2-30.72 51.2zM378.88 768h-348.16c-30.72 0-30.72-20.48-30.72-51.2s0-51.2 30.72-51.2h348.16c30.72 0 30.72 20.48 30.72 51.2s0 51.2-30.72 51.2z" />
<glyph unicode="&#xe902;" glyph-name="classic-computer" d="M819.2 972.8h-614.4c-56.32 0-102.4-46.029-102.4-102.4v-768c0-28.262 22.886-51.2 51.2-51.2v-102.4h716.8v102.4c28.314 0 51.2 22.938 51.2 51.2v768c0 56.371-46.029 102.4-102.4 102.4zM716.8 204.8h-204.8v51.2h204.8v-51.2zM768 409.6h-512v409.6h512v-409.6z" />
<glyph unicode="&#xe903;" glyph-name="alert-circle" d="M981.333 426.667c0 129.579-52.565 246.997-137.472 331.861s-202.283 137.472-331.861 137.472-246.997-52.565-331.861-137.472-137.472-202.283-137.472-331.861 52.565-246.997 137.472-331.861 202.283-137.472 331.861-137.472 246.997 52.565 331.861 137.472 137.472 202.283 137.472 331.861zM896 426.667c0-106.069-42.923-201.984-112.469-271.531s-165.461-112.469-271.531-112.469-201.984 42.923-271.531 112.469-112.469 165.461-112.469 271.531 42.923 201.984 112.469 271.531 165.461 112.469 271.531 112.469 201.984-42.923 271.531-112.469 112.469-165.461 112.469-271.531zM469.333 597.334v-170.667c0-23.552 19.115-42.667 42.667-42.667s42.667 19.115 42.667 42.667v170.667c0 23.552-19.115 42.667-42.667 42.667s-42.667-19.115-42.667-42.667zM512 213.334c23.552 0 42.667 19.115 42.667 42.667s-19.115 42.667-42.667 42.667-42.667-19.115-42.667-42.667 19.115-42.667 42.667-42.667z" />
<glyph unicode="&#xe904;" glyph-name="at-sign" d="M640 426.667c0-35.371-14.293-67.285-37.504-90.496s-55.125-37.504-90.496-37.504-67.285 14.293-90.496 37.504-37.504 55.125-37.504 90.496 14.293 67.285 37.504 90.496 55.125 37.504 90.496 37.504 67.285-14.293 90.496-37.504 37.504-55.125 37.504-90.496zM671.573 285.099c5.547-7.765 11.691-15.061 18.389-21.76 30.848-30.848 73.6-50.005 120.704-50.005s89.856 19.157 120.661 50.005 50.005 73.557 50.005 120.661v42.667c0 129.579-52.608 246.997-137.472 331.861s-202.283 137.472-331.904 137.429-246.955-52.565-331.861-137.472-137.429-202.283-137.429-331.861 52.608-246.997 137.472-331.861 202.283-137.472 331.861-137.429c107.733 0 207.147 36.352 285.44 96.811 18.645 14.379 22.101 41.173 7.68 59.861s-41.173 22.101-59.861 7.68c-63.445-48.981-144.085-78.677-231.893-79.019-108.373 0.384-203.776 43.264-272.981 112.469-69.419 69.504-112.384 165.419-112.384 271.488s42.923 201.984 112.469 271.531 165.461 112.469 271.531 112.469 201.984-42.923 271.531-112.469 112.469-165.461 112.469-271.488v-42.667c0-23.595-9.515-44.843-25.003-60.331s-36.736-25.003-60.331-25.003-44.843 9.515-60.331 25.003-25.003 36.736-25.003 60.331v213.333c0 23.552-19.115 42.667-42.667 42.667s-42.667-19.115-42.667-42.667c-35.627 26.752-80 42.667-128 42.667-58.88 0-112.299-23.936-150.869-62.464s-62.464-91.989-62.464-150.869 23.936-112.299 62.464-150.869 91.989-62.464 150.869-62.464 112.299 23.936 150.869 62.464c2.987 2.987 5.931 6.101 8.747 9.259z" />
<glyph unicode="&#xe905;" glyph-name="award" d="M639.403 280.576l32-241.152-137.429 82.475c-13.269 7.851-29.995 8.363-43.904 0l-137.429-82.475 32.043 241.109c39.296-15.829 82.304-24.533 127.317-24.533s88.021 8.747 127.403 24.576zM654.165 384.384c-2.475-1.28-4.821-2.773-6.955-4.48-39.253-24.448-85.547-38.571-135.211-38.571-70.699 0-134.656 28.587-181.035 74.965s-74.965 110.336-74.965 181.035 28.587 134.656 74.965 181.035 110.336 74.965 181.035 74.965 134.656-28.587 181.035-74.965 74.965-110.336 74.965-181.035-28.587-134.656-74.965-181.035c-11.861-11.861-24.875-22.571-38.869-31.915zM304.64 326.187l-48.256-363.221c-3.115-23.339 13.312-44.8 36.693-47.915 9.984-1.323 19.669 0.939 27.563 5.717l191.36 114.816 191.403-114.816c20.224-12.117 46.421-5.589 58.539 14.635 5.205 8.661 6.955 18.389 5.717 27.563l-48.213 363.307c11.947 9.173 23.296 19.115 33.92 29.739 61.696 61.696 99.968 147.072 99.968 241.323s-38.272 179.627-99.968 241.365-147.115 99.968-241.365 99.968-179.627-38.272-241.365-99.968-99.968-147.115-99.968-241.365 38.272-179.627 99.968-241.365c10.667-10.667 22.016-20.608 33.963-29.781z" />
<glyph unicode="&#xe906;" glyph-name="book1" d="M277.333 896c-41.216 0-78.635-16.768-105.6-43.733s-43.733-64.384-43.733-105.6v-640c0-41.216 16.768-78.635 43.733-105.6s64.384-43.733 105.6-43.733h576c23.552 0 42.667 19.115 42.667 42.667v853.333c0 23.552-19.115 42.667-42.667 42.667zM810.667 170.667v-128h-533.333c-17.664 0-33.621 7.125-45.269 18.731s-18.731 27.605-18.731 45.269 7.125 33.621 18.731 45.269 27.605 18.731 45.269 18.731zM277.333 810.667h533.333v-554.667h-533.333c-22.912 0-44.587-5.163-64-14.379v505.045c0 17.664 7.125 33.621 18.731 45.269s27.605 18.731 45.269 18.731z" />
<glyph unicode="&#xe907;" glyph-name="book-open" d="M896 768v-554.667h-256c-31.061 0-60.245-8.32-85.333-22.827v449.493c0 35.371 14.293 67.285 37.504 90.496s55.125 37.504 90.496 37.504zM469.333 190.507c-25.088 14.507-54.272 22.827-85.333 22.827h-256v554.667h213.333c35.371 0 67.285-14.293 90.496-37.504s37.504-55.125 37.504-90.496zM938.667 853.334h-256c-58.88 0-112.299-23.936-150.869-62.464-7.125-7.125-13.739-14.763-19.797-22.869-6.059 8.107-12.672 15.744-19.797 22.869-38.571 38.528-91.989 62.464-150.869 62.464h-256c-23.552 0-42.667-19.115-42.667-42.667v-640c0-23.552 19.115-42.667 42.667-42.667h298.667c23.595 0 44.843-9.515 60.331-25.003s25.003-36.736 25.003-60.331c0-23.552 19.115-42.667 42.667-42.667s42.667 19.115 42.667 42.667c0 23.595 9.515 44.843 25.003 60.331s36.736 25.003 60.331 25.003h298.667c23.552 0 42.667 19.115 42.667 42.667v640c0 23.552-19.115 42.667-42.667 42.667z" />
<glyph unicode="&#xe908;" glyph-name="bookmark1" d="M785.877 7.936c6.869-4.949 15.488-7.936 24.789-7.936 23.552 0 42.667 19.115 42.667 42.667v682.667c0 35.328-14.379 67.413-37.504 90.496s-55.168 37.504-90.496 37.504h-426.667c-35.328 0-67.413-14.379-90.496-37.504s-37.504-55.168-37.504-90.496v-682.667c-0.043-8.491 2.56-17.237 7.936-24.789 13.696-19.157 40.363-23.637 59.52-9.899l273.877 195.584zM768 125.568l-231.211 165.163c-15.147 10.837-34.944 10.325-49.579 0l-231.211-165.163v599.765c0 11.776 4.736 22.4 12.501 30.165s18.389 12.501 30.165 12.501h426.667c11.776 0 22.4-4.736 30.165-12.501s12.501-18.389 12.501-30.165z" />
<glyph unicode="&#xe909;" glyph-name="box1" d="M809.003 647.339l-297.003-171.819-297.003 171.819 275.456 157.397c4.779 2.731 9.899 4.48 15.147 5.291 9.301 1.451 18.987-0.128 27.904-5.291zM491.776-41.002c6.016-3.243 12.928-5.077 20.224-5.077 7.381 0 14.336 1.877 20.395 5.163 15.189 2.475 29.909 7.68 43.392 15.36l298.709 170.709c26.368 15.232 45.227 38.272 55.424 64.597 5.675 14.592 8.619 30.165 8.747 46.251v341.333c0 20.395-4.821 39.723-13.397 56.917-0.939 3.029-2.219 5.973-3.883 8.832-1.963 3.371-4.267 6.357-6.912 8.96-1.323 1.835-2.731 3.669-4.139 5.419-9.813 12.203-21.845 22.528-35.456 30.507l-299.051 170.88c-26.027 15.019-55.467 19.84-83.371 15.531-15.488-2.432-30.507-7.637-44.245-15.488l-298.709-170.709c-16.341-9.429-29.824-21.888-40.149-36.267-2.56-2.56-4.864-5.547-6.784-8.832-1.664-2.901-2.987-5.888-3.925-8.96-1.707-3.413-3.243-6.955-4.608-10.496-5.632-14.635-8.576-30.208-8.704-45.995v-341.632c0.043-30.293 10.581-58.155 28.331-80.128 9.813-12.203 21.845-22.528 35.456-30.507l299.051-170.88c13.824-7.979 28.587-13.099 43.605-15.445zM469.333 401.622v-340.949l-277.12 158.336c-4.736 2.773-8.832 6.315-12.16 10.453-5.931 7.339-9.387 16.469-9.387 26.539v318.379zM554.667 60.672v340.949l298.667 172.757v-318.379c-0.043-5.163-1.067-10.496-2.987-15.445-3.413-8.789-9.6-16.384-18.176-21.333z" />
<glyph unicode="&#xe90a;" glyph-name="calendar1" d="M298.667 853.334v-42.667h-85.333c-35.328 0-67.413-14.379-90.496-37.504s-37.504-55.168-37.504-90.496v-597.333c0-35.328 14.379-67.413 37.504-90.496s55.168-37.504 90.496-37.504h597.333c35.328 0 67.413 14.379 90.496 37.504s37.504 55.168 37.504 90.496v597.333c0 35.328-14.379 67.413-37.504 90.496s-55.168 37.504-90.496 37.504h-85.333v42.667c0 23.552-19.115 42.667-42.667 42.667s-42.667-19.115-42.667-42.667v-42.667h-256v42.667c0 23.552-19.115 42.667-42.667 42.667s-42.667-19.115-42.667-42.667zM853.333 554.667h-682.667v128c0 11.776 4.736 22.4 12.501 30.165s18.389 12.501 30.165 12.501h85.333v-42.667c0-23.552 19.115-42.667 42.667-42.667s42.667 19.115 42.667 42.667v42.667h256v-42.667c0-23.552 19.115-42.667 42.667-42.667s42.667 19.115 42.667 42.667v42.667h85.333c11.776 0 22.4-4.736 30.165-12.501s12.501-18.389 12.501-30.165zM170.667 469.334h682.667v-384c0-11.776-4.736-22.4-12.501-30.165s-18.389-12.501-30.165-12.501h-597.333c-11.776 0-22.4 4.736-30.165 12.501s-12.501 18.389-12.501 30.165z" />
<glyph unicode="&#xe90b;" glyph-name="check-square" d="M353.835 439.168l128-128c16.683-16.683 43.691-16.683 60.331 0l426.667 426.667c16.683 16.683 16.683 43.691 0 60.331s-43.691 16.683-60.331 0l-396.501-396.501-97.835 97.835c-16.683 16.683-43.691 16.683-60.331 0s-16.683-43.691 0-60.331zM853.333 426.667v-298.667c0-11.776-4.736-22.4-12.501-30.165s-18.389-12.501-30.165-12.501h-597.333c-11.776 0-22.4 4.736-30.165 12.501s-12.501 18.389-12.501 30.165v597.333c0 11.776 4.736 22.4 12.501 30.165s18.389 12.501 30.165 12.501h469.333c23.552 0 42.667 19.115 42.667 42.667s-19.115 42.667-42.667 42.667h-469.333c-35.328 0-67.413-14.379-90.496-37.504s-37.504-55.168-37.504-90.496v-597.333c0-35.328 14.379-67.413 37.504-90.496s55.168-37.504 90.496-37.504h597.333c35.328 0 67.413 14.379 90.496 37.504s37.504 55.168 37.504 90.496v298.667c0 23.552-19.115 42.667-42.667 42.667s-42.667-19.115-42.667-42.667z" />
<glyph unicode="&#xe90c;" glyph-name="clipboard1" d="M298.667 725.334c0-23.552 9.6-44.928 25.003-60.331s36.779-25.003 60.331-25.003h256c23.552 0 44.928 9.6 60.331 25.003s25.003 36.779 25.003 60.331h42.667c11.776 0 22.4-4.736 30.165-12.501s12.501-18.389 12.501-30.165v-597.333c0-11.776-4.736-22.4-12.501-30.165s-18.389-12.501-30.165-12.501h-512c-11.776 0-22.4 4.736-30.165 12.501s-12.501 18.389-12.501 30.165v597.333c0 11.776 4.736 22.4 12.501 30.165s18.389 12.501 30.165 12.501zM384 896c-23.552 0-44.928-9.6-60.331-25.003s-25.003-36.779-25.003-60.331h-42.667c-35.328 0-67.413-14.379-90.496-37.504s-37.504-55.168-37.504-90.496v-597.333c0-35.328 14.379-67.413 37.504-90.496s55.168-37.504 90.496-37.504h512c35.328 0 67.413 14.379 90.496 37.504s37.504 55.168 37.504 90.496v597.333c0 35.328-14.379 67.413-37.504 90.496s-55.168 37.504-90.496 37.504h-42.667c0 23.552-9.6 44.928-25.003 60.331s-36.779 25.003-60.331 25.003zM384 810.667h256v-85.333h-256z" />
<glyph unicode="&#xe90d;" glyph-name="document-landscape" d="M972.8 819.2h-921.6c-28.262 0-51.2-22.886-51.2-51.2v-614.4c0-28.314 22.938-51.2 51.2-51.2h921.6c28.262 0 51.2 22.886 51.2 51.2v614.4c0 28.314-22.886 51.2-51.2 51.2zM921.6 204.8h-819.2v512h819.2v-512z" />
<glyph unicode="&#xe90e;" glyph-name="remove-user" d="M818.637-6.605c0 114.995-111.974 173.517-221.030 220.518-108.698 46.797-143.411 86.221-143.411 170.701 0 50.637 33.178 34.15 47.718 127.027 6.144 38.502 35.43 0.614 41.062 88.525 0 35.021-16.026 43.725-16.026 43.725s8.141 51.866 11.315 91.802c3.277 41.83-20.378 131.072-117.811 158.464-16.998 17.459-28.518 45.158 23.91 72.909-114.688 5.325-141.363-54.682-202.445-98.816-51.968-38.707-65.997-99.994-63.488-132.608 3.328-39.936 11.418-91.802 11.418-91.802s-16.077-8.704-16.077-43.725c5.632-87.962 35.021-50.022 41.114-88.525 14.541-92.877 47.77-76.39 47.77-127.027 0-84.48-10.854-113.152-119.603-159.949-109.107-46.95-143.053-122.214-142.49-231.219 0.154-32.614-0.563-44.595-0.563-44.595h819.2c0 0-0.563 11.981-0.563 44.595zM819.2 458.803l-117.709 122.778-54.323-54.323 122.829-117.658-122.778-117.658 54.323-54.323 117.658 122.778 117.658-122.778 54.323 54.323-122.778 117.658 122.726 117.658-54.323 54.323-117.606-122.778z" />
<glyph unicode="&#xe90f;" glyph-name="warning" d="M998.963 52.224l-456.038 851.558c-6.349 11.008-18.125 17.818-30.925 17.818-12.851 0-24.627-6.81-30.925-17.818l-455.987-851.558c-6.195-10.803-6.093-24.115 0.256-34.816 6.4-10.803 18.022-17.408 30.618-17.408h912.077c12.544 0 24.269 6.605 30.618 17.408 6.349 10.701 6.451 24.013 0.307 34.816zM563.2 102.4h-102.4v102.4h102.4v-102.4zM563.2 281.6h-102.4v332.8h102.4v-332.8z" />
<glyph unicode="&#xe910;" glyph-name="arrow-bold-down" d="M128 460.8h179.2v358.4h409.6v-358.4h179.2l-384-384-384 384z" />
<glyph unicode="&#xe911;" glyph-name="arrow-bold-left" d="M512 844.8v-179.2h358.4v-409.6h-358.4v-179.2l-384 384 384 384z" />
<glyph unicode="&#xe912;" glyph-name="arrow-bold-right" d="M896 460.8l-384-384v179.2h-358.4v409.6h358.4v179.2l384-384z" />
<glyph unicode="&#xe913;" glyph-name="arrow-bold-up" d="M512 844.8l384-384h-179.2v-358.4h-409.6v358.4h-179.2l384 384z" />
<glyph unicode="&#xe914;" glyph-name="arrow-down" d="M512 76.8l-332.8 332.8h179.2v409.6h307.2v-409.6h179.2l-332.8-332.8z" />
<glyph unicode="&#xe915;" glyph-name="arrow-left" d="M128 460.8l332.8 332.8v-179.2h409.6v-307.2h-409.6v-179.2l-332.8 332.8z" />
<glyph unicode="&#xe916;" glyph-name="arrow-long-down" d="M512-12.8l-281.6 268.8h179.2v665.6h204.8v-665.6h179.2l-281.6-268.8z" />
<glyph unicode="&#xe917;" glyph-name="arrow-long-left" d="M38.4 460.8l268.8 281.6v-179.2h665.6v-204.8h-665.6v-179.2l-268.8 281.6z" />
<glyph unicode="&#xe918;" glyph-name="arrow-long-right" d="M716.8 179.2v179.2h-665.6v204.8h665.6v179.2l268.8-281.6-268.8-281.6z" />
<glyph unicode="&#xe919;" glyph-name="arrow-long-up" d="M512 934.4l281.6-268.8h-179.2v-665.6h-204.8v665.6h-179.2l281.6 268.8z" />
<glyph unicode="&#xe91a;" glyph-name="arrow-right" d="M563.2 128v179.2h-409.6v307.2h409.6v179.2l332.8-332.8-332.8-332.8z" />
<glyph unicode="&#xe91b;" glyph-name="arrow-up" d="M512 844.8l332.8-332.8h-179.2v-409.6h-307.2v409.6h-179.2l332.8 332.8z" />
<glyph unicode="&#xe91c;" glyph-name="arrow-with-circle-down" d="M512 952.32c-271.514 0-491.571-220.058-491.571-491.52 0-271.514 220.058-491.571 491.571-491.571 271.411 0 491.52 220.058 491.52 491.571 0 271.462-220.109 491.52-491.52 491.52zM511.949 71.68c-214.886 0-389.12 174.182-389.12 389.12s174.182 389.12 389.12 389.12 389.171-174.234 389.171-389.12-174.285-389.12-389.171-389.12zM614.4 665.6h-204.8v-204.8h-128l230.4-230.4 230.4 230.4h-128v204.8z" />
<glyph unicode="&#xe91d;" glyph-name="arrow-with-circle-left" d="M512 952.32c-271.514 0-491.571-220.058-491.571-491.52 0-271.514 220.058-491.571 491.571-491.571 271.411 0 491.52 220.058 491.52 491.571 0 271.462-220.109 491.52-491.52 491.52zM511.949 71.68c-214.886 0-389.12 174.182-389.12 389.12s174.182 389.12 389.12 389.12 389.171-174.234 389.171-389.12-174.285-389.12-389.171-389.12zM512 691.2l-230.4-230.4 230.4-230.4v128h204.8v204.8h-204.8v128z" />
<glyph unicode="&#xe91e;" glyph-name="arrow-with-circle-right" d="M512 952.32c-271.514 0-491.571-220.058-491.571-491.52 0-271.514 220.058-491.571 491.571-491.571 271.411 0 491.52 220.058 491.52 491.571 0 271.462-220.109 491.52-491.52 491.52zM511.949 71.68c-214.886 0-389.12 174.182-389.12 389.12s174.182 389.12 389.12 389.12 389.171-174.234 389.171-389.12-174.285-389.12-389.171-389.12zM512 563.2h-204.8v-204.8h204.8v-128l230.4 230.4-230.4 230.4v-128z" />
<glyph unicode="&#xe91f;" glyph-name="arrow-with-circle-up" d="M512 952.32c-271.514 0-491.571-220.058-491.571-491.52 0-271.514 220.058-491.571 491.571-491.571 271.411 0 491.52 220.058 491.52 491.571 0 271.462-220.109 491.52-491.52 491.52zM511.949 71.68c-214.886 0-389.12 174.182-389.12 389.12s174.182 389.12 389.12 389.12 389.171-174.234 389.171-389.12-174.285-389.12-389.171-389.12zM512 691.2l230.4-230.4h-128v-204.8h-204.8v204.8h-128l230.4 230.4z" />
<glyph unicode="&#xe920;" glyph-name="bookmark" d="M716.8 870.4v-870.4l-204.8 204.8-204.8-204.8v870.4c0 28.314 29.952 52.224 51.2 51.2h307.2c35.277 1.024 51.2-22.886 51.2-51.2z" />
<glyph unicode="&#xe921;" glyph-name="bookmarks" d="M768 972.8h-204.8c-28.314 0-51.2-22.886-51.2-51.2l1.178-11.366c56.422 0 102.4-45.926 102.4-102.4v-581.581l50.022 60.467 153.6-184.32v819.2c0 28.314-22.886 51.2-51.2 51.2zM461.978 819.2h-205.978c-28.314 0-51.2-22.886-51.2-51.2v-819.2l153.6 184.32 153.6-184.32v819.2c0 28.314-21.709 51.2-50.022 51.2z" />
<glyph unicode="&#xe922;" glyph-name="chevron-down" d="M231.219 586.342c22.323 22.835 53.402 24.627 80.691 0l200.090-191.846 200.090 191.846c27.29 24.627 58.419 22.835 80.589 0 22.323-22.784 20.89-61.286 0-82.688-20.787-21.402-240.384-230.502-240.384-230.502-11.11-11.418-25.702-17.152-40.294-17.152s-29.184 5.734-40.397 17.152c0 0-219.494 209.101-240.384 230.502-20.941 21.402-22.323 59.904 0 82.688z" />
<glyph unicode="&#xe923;" glyph-name="chevron-left" d="M637.542 741.581c22.835-22.323 24.627-53.402 0-80.691l-191.846-200.090 191.846-200.090c24.627-27.29 22.835-58.419 0-80.589-22.784-22.323-61.286-20.89-82.688 0-21.402 20.787-230.502 240.384-230.502 240.384-11.418 11.11-17.152 25.702-17.152 40.294s5.734 29.184 17.152 40.397c0 0 209.101 219.494 230.502 240.384 21.402 20.941 59.904 22.323 82.688 0z" />
<glyph unicode="&#xe924;" glyph-name="chevron-right" d="M469.146 741.581c21.402-20.89 230.502-240.384 230.502-240.384 11.418-11.213 17.152-25.805 17.152-40.397s-5.734-29.184-17.152-40.294c0 0-209.101-219.597-230.502-240.384-21.402-20.89-59.904-22.323-82.688 0-22.835 22.221-24.627 53.299 0 80.589l191.846 200.090-191.846 200.090c-24.627 27.29-22.835 58.419 0 80.691 22.784 22.323 61.286 20.941 82.688 0z" />
<glyph unicode="&#xe925;" glyph-name="chevron-small-down" d="M687.002 570.419c13.875 13.722 36.301 13.722 50.074 0 13.824-13.722 13.926-35.891 0-49.613l-200.090-196.096c-13.824-13.722-36.198-13.722-50.125 0l-200.090 196.096c-13.824 13.67-13.824 35.891 0 49.613 13.875 13.722 36.301 13.722 50.074 0l175.155-160.819 175.002 160.819z" />
<glyph unicode="&#xe926;" glyph-name="chevron-small-left" d="M621.619 285.798c13.722-13.875 13.722-36.301 0-50.074-13.722-13.824-35.891-13.926-49.613 0l-196.096 200.090c-13.722 13.824-13.722 36.198 0 50.125l196.096 200.090c13.67 13.824 35.891 13.824 49.613 0 13.722-13.875 13.722-36.301 0-50.074l-160.819-175.155 160.819-175.002z" />
<glyph unicode="&#xe927;" glyph-name="chevron-small-right" d="M563.2 460.8l-160.819 175.104c-13.722 13.824-13.722 36.198 0 50.074 13.722 13.824 35.891 13.824 49.613 0l196.096-200.090c13.722-13.875 13.722-36.301 0-50.125l-196.096-200.090c-13.67-13.926-35.891-13.824-49.613 0-13.722 13.773-13.722 36.198 0 50.074l160.819 175.053z" />
<glyph unicode="&#xe928;" glyph-name="chevron-small-up" d="M336.998 351.181c-13.875-13.722-36.301-13.722-50.074 0s-13.926 35.891 0 49.613l200.090 196.096c13.824 13.722 36.198 13.722 50.125 0l200.090-196.096c13.824-13.67 13.824-35.891 0-49.613-13.875-13.722-36.301-13.722-50.125 0l-175.104 160.819-175.002-160.819z" />
<glyph unicode="&#xe929;" glyph-name="chevron-thin-down" d="M891.802 660.019c13.926 13.722 36.301 13.722 50.125 0s13.875-35.891 0-49.613l-404.89-400.896c-13.824-13.722-36.198-13.722-50.125 0l-404.89 400.896c-13.824 13.722-13.824 35.891 0 49.613 13.875 13.722 36.301 13.722 50.125 0l379.853-365.619 379.802 365.619z" />
<glyph unicode="&#xe92a;" glyph-name="chevron-thin-left" d="M711.219 80.998c13.722-13.926 13.722-36.301 0-50.125s-35.891-13.875-49.613 0l-400.896 404.89c-13.722 13.824-13.722 36.198 0 50.125l400.896 404.89c13.722 13.824 35.891 13.824 49.613 0 13.722-13.875 13.722-36.301 0-50.125l-365.619-379.853 365.619-379.802z" />
<glyph unicode="&#xe92b;" glyph-name="chevron-thin-right" d="M678.4 460.8l-365.619 379.904c-13.722 13.824-13.722 36.198 0 50.125 13.722 13.824 35.891 13.824 49.613 0l400.896-404.89c13.722-13.875 13.722-36.301 0-50.125l-400.896-404.89c-13.722-13.875-35.891-13.824-49.613 0-13.722 13.773-13.722 36.198 0 50.125l365.619 379.75z" />
<glyph unicode="&#xe92c;" glyph-name="chevron-thin-up" d="M132.198 261.581c-13.926-13.722-36.301-13.722-50.125 0s-13.875 35.891 0 49.613l404.89 400.896c13.824 13.722 36.198 13.722 50.125 0l404.89-400.896c13.824-13.722 13.824-35.891 0-49.613-13.875-13.722-36.301-13.722-50.074 0l-379.904 365.619-379.802-365.619z" />
<glyph unicode="&#xe92d;" glyph-name="chevron-up" d="M792.781 335.258c-22.323-22.835-53.402-24.627-80.691 0l-200.090 191.846-200.090-191.846c-27.29-24.627-58.419-22.835-80.589 0-22.323 22.784-20.89 61.286 0 82.688 20.787 21.402 240.384 230.502 240.384 230.502 11.11 11.418 25.702 17.152 40.294 17.152s29.184-5.734 40.397-17.152c0 0 219.494-209.101 240.384-230.502 20.941-21.402 22.323-59.904 0-82.688z" />
<glyph unicode="&#xe92e;" glyph-name="chevron-with-circle-down" d="M640.256 527.462l-128.256-117.862-128.307 117.862c-10.138 10.035-26.522 10.035-36.762 0-10.086-10.035-10.086-26.368 0-36.352l146.637-143.718c10.189-10.035 26.624-10.035 36.71 0l146.637 143.718c10.189 9.984 10.138 26.317 0 36.352-10.086 10.035-26.47 10.035-36.659 0zM512 952.32c-271.462 0-491.52-220.058-491.52-491.52 0-271.514 220.058-491.52 491.52-491.52s491.52 220.006 491.52 491.52c0 271.462-220.058 491.52-491.52 491.52zM512 33.075c-236.288 0-427.725 191.488-427.725 427.725s191.437 427.725 427.725 427.725c236.186 0 427.725-191.488 427.725-427.725s-191.539-427.725-427.725-427.725z" />
<glyph unicode="&#xe92f;" glyph-name="chevron-with-circle-left" d="M578.662 625.869c-10.035 10.086-26.368 10.086-36.352 0l-143.718-146.688c-10.035-10.189-10.035-26.624 0-36.71l143.718-146.637c9.984-10.189 26.317-10.138 36.352 0 10.035 10.086 10.035 26.522 0 36.71l-117.862 128.256 117.862 128.307c10.035 10.138 10.035 26.522 0 36.762zM512 952.32c-271.462 0-491.52-220.058-491.52-491.52 0-271.514 220.058-491.52 491.52-491.52s491.52 220.006 491.52 491.52c0 271.462-220.058 491.52-491.52 491.52zM512 33.075c-236.288 0-427.725 191.488-427.725 427.725s191.437 427.725 427.725 427.725c236.186 0 427.725-191.488 427.725-427.725s-191.539-427.725-427.725-427.725z" />
<glyph unicode="&#xe930;" glyph-name="chevron-with-circle-right" d="M563.2 460.8l-117.862 128.307c-10.035 10.138-10.035 26.573 0 36.762 10.035 10.086 26.368 10.086 36.352 0l143.718-146.637c10.035-10.189 10.035-26.624 0-36.71l-143.718-146.637c-9.984-10.189-26.317-10.138-36.352 0-10.035 10.086-10.035 26.522 0 36.71l117.862 128.205zM512 952.32c271.462 0 491.52-220.058 491.52-491.52 0-271.514-220.058-491.52-491.52-491.52s-491.52 220.006-491.52 491.52c0 271.462 220.058 491.52 491.52 491.52zM512 33.075c236.186 0 427.725 191.488 427.725 427.725s-191.539 427.725-427.725 427.725c-236.288 0-427.725-191.488-427.725-427.725-0.051-236.237 191.437-427.725 427.725-427.725z" />
<glyph unicode="&#xe931;" glyph-name="chevron-with-circle-up" d="M530.381 574.208c-10.189 10.035-26.624 10.035-36.71 0l-146.637-143.718c-10.189-9.984-10.138-26.317 0-36.352 10.086-10.035 26.522-10.035 36.71 0l128.256 117.862 128.307-117.862c10.138-10.035 26.522-10.035 36.762 0 10.086 10.035 10.086 26.368 0 36.352l-146.688 143.718zM512 952.32c-271.462 0-491.52-220.058-491.52-491.52 0-271.514 220.058-491.52 491.52-491.52s491.52 220.006 491.52 491.52c0 271.462-220.058 491.52-491.52 491.52zM512 33.075c-236.288 0-427.725 191.488-427.725 427.725s191.437 427.725 427.725 427.725c236.186 0 427.725-191.488 427.725-427.725s-191.539-427.725-427.725-427.725z" />
<glyph unicode="&#xe932;" glyph-name="cloud" d="M1024 393.216c0-132.301-109.773-239.616-245.094-239.616h-593.715c-102.298 0-185.19 81.101-185.19 181.094 0 99.891 82.893 180.992 185.19 180.992 7.475 0 14.746-0.614 21.965-1.382-1.894 12.595-2.918 25.498-2.918 38.707 0 146.995 121.907 266.189 272.384 266.189 123.238 0 227.277-79.974 260.915-189.798 13.466 2.202 27.238 3.379 41.421 3.379 135.27 0 245.043-107.162 245.043-239.565z" />
<glyph unicode="&#xe933;" glyph-name="controller-fast-forward" d="M473.293 485.376l-368.794 253.389c-29.286 19.61-53.299 5.222-53.299-32v-491.981c0-37.12 24.013-51.507 53.299-32l368.794 253.491c0 0 14.285 10.189 14.285 24.474 0 14.336-14.285 24.627-14.285 24.627zM952.32 460.749c0-14.285-14.285-24.474-14.285-24.474l-368.794-253.491c-29.286-19.507-53.299-5.12-53.299 32v491.981c0 37.222 24.013 51.61 53.299 32l368.742-253.389c0 0 14.336-10.291 14.336-24.627z" />
<glyph unicode="&#xe934;" glyph-name="controller-jump-to-start" d="M765.901 738.765l-368.794-253.389c0 0-14.285-10.291-14.285-24.627s14.285-24.525 14.285-24.525l368.794-253.491c29.286-19.456 53.299-5.069 53.299 32.051v491.981c0 37.222-24.013 51.61-53.299 32zM307.2 768h-51.2c-28.314 0-51.2-2.458-51.2-30.72v-552.96c0-28.262 22.886-30.72 51.2-30.72h51.2c28.314 0 51.2 2.458 51.2 30.72v552.96c0 28.262-22.886 30.72-51.2 30.72z" />
<glyph unicode="&#xe935;" glyph-name="controller-next" d="M626.893 485.376l-368.794 253.389c-29.286 19.61-53.299 5.222-53.299-32v-491.981c0-37.12 24.013-51.507 53.299-32l368.794 253.491c0 0 14.285 10.189 14.285 24.474 0 14.336-14.285 24.627-14.285 24.627zM716.8 768h51.2c28.314 0 51.2-2.458 51.2-30.72v-552.96c0-28.262-22.886-30.72-51.2-30.72h-51.2c-28.314 0-51.2 2.458-51.2 30.72v552.96c0 28.262 22.886 30.72 51.2 30.72z" />
<glyph unicode="&#xe936;" glyph-name="controller-paus" d="M768 819.2h-102.4c-28.314 0-51.2-2.458-51.2-30.72v-655.36c0-28.262 22.886-30.72 51.2-30.72h102.4c28.314 0 51.2 2.458 51.2 30.72v655.36c0 28.262-22.886 30.72-51.2 30.72zM358.4 819.2h-102.4c-28.314 0-51.2-2.458-51.2-30.72v-655.36c0-28.262 22.886-30.72 51.2-30.72h102.4c28.314 0 51.2 2.458 51.2 30.72v655.36c0 28.262-22.886 30.72-51.2 30.72z" />
<glyph unicode="&#xe937;" glyph-name="controller-play" d="M768 460.749c0-15.309-15.616-26.317-15.616-26.317l-438.323-271.514c-31.949-20.941-58.061-5.427-58.061 34.253v527.206c0 39.782 26.112 55.194 58.112 34.304l438.323-271.616c-0.051 0 15.565-11.008 15.565-26.317z" />
<glyph unicode="&#xe938;" glyph-name="controller-record" d="M512 819.2c-197.939 0-358.4-160.41-358.4-358.4 0-197.888 160.461-358.4 358.4-358.4s358.4 160.512 358.4 358.4c0 197.99-160.461 358.4-358.4 358.4z" />
<glyph unicode="&#xe939;" glyph-name="controller-stop" d="M819.2 717.056v-502.17c0-33.843-27.443-61.286-61.235-61.286h-502.118c-28.211 0-51.046 22.835-51.046 51.046v502.118c0 33.792 27.443 61.235 61.235 61.235h502.17c28.16 0 50.995-22.835 50.995-50.944z" />
<glyph unicode="&#xe93a;" glyph-name="controller-volume" d="M972.8 265.984c0-33.638-27.546-61.184-61.184-61.184h-833.126c-45.056 0-50.278 18.995-11.725 42.086l835.738 463.616c38.656 23.194 70.298 5.325 70.298-39.782v-404.736z" />
<glyph unicode="&#xe93b;" glyph-name="dot-single" d="M399.36 460.8c0-62.208 50.483-112.64 112.691-112.64s112.589 50.483 112.589 112.64c0 62.208-50.381 112.589-112.589 112.589s-112.691-50.381-112.691-112.589z" />
<glyph unicode="&#xe93c;" glyph-name="dots-three-horizontal" d="M512.051 573.44c-62.208 0-112.691-50.432-112.691-112.64s50.483-112.64 112.691-112.64c62.208 0 112.589 50.432 112.589 112.64s-50.381 112.64-112.589 112.64zM153.651 573.44c-62.208 0-112.691-50.432-112.691-112.64s50.483-112.64 112.691-112.64c62.208 0 112.589 50.483 112.589 112.64s-50.381 112.64-112.589 112.64zM870.451 573.44c-62.208 0-112.691-50.432-112.691-112.64s50.483-112.64 112.691-112.64c62.208 0 112.589 50.432 112.589 112.64s-50.381 112.64-112.589 112.64z" />
<glyph unicode="&#xe93d;" glyph-name="dots-three-vertical" d="M512.051 573.44c-62.208 0-112.691-50.432-112.691-112.64s50.483-112.64 112.691-112.64c62.208 0 112.589 50.432 112.589 112.64s-50.381 112.64-112.589 112.64zM512.051 706.56c62.208 0 112.589 50.483 112.589 112.64s-50.381 112.64-112.589 112.64c-62.208 0-112.691-50.432-112.691-112.64s50.483-112.64 112.691-112.64zM512.051 215.040c-62.208 0-112.691-50.432-112.691-112.64s50.483-112.64 112.691-112.64c62.208 0 112.589 50.432 112.589 112.64s-50.381 112.64-112.589 112.64z" />
<glyph unicode="&#xe93e;" glyph-name="dots-two-horizontal" d="M716.851 573.44c-62.208 0-112.691-50.432-112.691-112.64s50.483-112.64 112.691-112.64c62.208 0 112.589 50.432 112.589 112.64s-50.381 112.64-112.589 112.64zM307.251 573.44c-62.208 0-112.691-50.432-112.691-112.64s50.483-112.64 112.691-112.64c62.208 0 112.589 50.483 112.589 112.64s-50.381 112.64-112.589 112.64z" />
<glyph unicode="&#xe93f;" glyph-name="dots-two-vertical" d="M512.051 552.96c62.208 0 112.589 50.483 112.589 112.64s-50.381 112.64-112.589 112.64c-62.208 0-112.691-50.432-112.691-112.64s50.483-112.64 112.691-112.64zM512.051 368.64c-62.208 0-112.691-50.432-112.691-112.64s50.483-112.64 112.691-112.64c62.208 0 112.589 50.432 112.589 112.64s-50.381 112.64-112.589 112.64z" />
<glyph unicode="&#xe940;" glyph-name="download" d="M768 614.4h-153.6v307.2h-204.8v-307.2h-153.6l256-256 256 256zM990.106 279.962c-10.752 11.469-82.483 88.218-102.963 108.237-13.568 13.261-32.973 21.402-53.35 21.402h-89.958l156.877-153.293h-181.453c-5.222 0-9.933-2.662-12.288-6.81l-41.779-95.898h-306.381l-41.779 95.898c-2.355 4.147-7.117 6.81-12.288 6.81h-181.453l156.826 153.293h-89.907c-20.326 0-39.731-8.141-53.35-21.402-20.48-20.070-92.211-96.819-102.963-108.237-25.037-26.675-38.81-47.923-32.256-74.189l28.723-157.389c6.554-26.317 35.379-47.923 64.102-47.923h835.174c28.723 0 57.549 21.606 64.102 47.923l28.723 157.389c6.451 26.266-7.27 47.514-32.358 74.189z" />
<glyph unicode="&#xe941;" glyph-name="emoji-flirt" d="M384 473.6c42.445 0 76.8 40.090 76.8 89.6s-34.355 89.6-76.8 89.6-76.8-40.141-76.8-89.6 34.406-89.6 76.8-89.6zM512 952.32c-271.462 0-491.52-220.058-491.52-491.52s220.058-491.52 491.52-491.52c271.411 0 491.52 220.058 491.52 491.571 0 271.411-220.109 491.469-491.52 491.469zM512 71.731c-214.886 0-389.12 174.182-389.12 389.12 0 214.886 174.182 389.12 389.12 389.12s389.12-174.234 389.12-389.171c0-214.886-174.234-389.069-389.12-389.069zM734.259 392.397c-18.586 9.574-41.728 2.202-51.61-16.384-1.741-3.328-44.493-81.562-170.598-81.562-125.491 0-168.499 77.466-170.65 81.51-9.626 18.688-32.358 26.317-51.405 16.845-18.944-9.472-26.675-32.563-17.152-51.558 2.56-5.069 63.898-123.597 239.206-123.597 175.36 0 236.595 118.579 239.104 123.648 9.421 18.79 1.843 41.472-16.896 51.098zM576 524.8h128c21.197 0 38.4 17.203 38.4 38.4s-17.203 38.4-38.4 38.4h-128c-21.197 0-38.4-17.203-38.4-38.4 0-21.248 17.203-38.4 38.4-38.4z" />
<glyph unicode="&#xe942;" glyph-name="flow-branch" d="M839.68 768c0 67.891-54.989 122.88-122.88 122.88s-122.88-54.989-122.88-122.88c0-49.203 29.082-91.341 70.861-110.95-4.198-81.101-65.024-108.646-170.752-148.275-44.544-16.742-93.645-35.277-135.629-63.181v210.995c42.24 19.456 71.68 61.901 71.68 111.411 0 67.891-54.989 122.88-122.88 122.88s-122.88-54.989-122.88-122.88c0-49.51 29.491-91.955 71.68-111.411v-391.629c-42.24-19.405-71.68-61.85-71.68-111.36 0-67.891 54.989-122.88 122.88-122.88s122.88 55.040 122.88 122.88c0 49.203-29.082 91.341-70.861 110.95 4.198 81.050 65.075 108.646 170.752 148.275 103.936 39.014 232.499 87.603 237.568 243.507 42.445 19.354 72.141 61.952 72.141 111.667zM307.2 838.912c39.117 0 70.861-31.693 70.861-70.912 0-39.117-31.744-70.912-70.861-70.912-39.168 0-70.861 31.795-70.861 70.912 0 39.219 31.693 70.912 70.861 70.912zM307.2 82.688c-39.219 0-70.912 31.795-70.912 70.912 0 39.219 31.693 70.912 70.912 70.912 39.117 0 70.861-31.693 70.861-70.912 0-39.117-31.744-70.912-70.861-70.912zM716.8 697.088c-39.219 0-70.912 31.795-70.912 70.912 0 39.219 31.693 70.912 70.912 70.912 39.117 0 70.861-31.693 70.861-70.912 0-39.117-31.744-70.912-70.861-70.912z" />
<glyph unicode="&#xe943;" glyph-name="flow-cascade" d="M716.8 225.28c-49.51 0-91.955-29.491-111.411-71.68h-170.189c-42.394 0-76.8 34.406-76.8 76.8v197.12c23.347-11.162 49.203-17.92 76.8-17.92h170.189c19.456-42.189 61.85-71.68 111.411-71.68 67.891 0 122.88 55.040 122.88 122.88s-54.989 122.88-122.88 122.88c-49.51 0-91.955-29.491-111.411-71.68h-170.189c-42.394 0-76.8 34.406-76.8 76.8v118.989c42.24 19.456 71.68 61.901 71.68 111.411 0 67.891-54.989 122.88-122.88 122.88s-122.88-54.989-122.88-122.88c0-49.51 29.491-91.955 71.68-111.411v-477.389c0-98.97 80.23-179.2 179.2-179.2h170.189c19.456-42.189 61.85-71.68 111.411-71.68 67.891 0 122.88 55.040 122.88 122.88s-54.989 122.88-122.88 122.88zM716.8 531.712c39.117 0 70.861-31.693 70.861-70.912 0-39.117-31.744-70.912-70.861-70.912-39.219 0-70.912 31.795-70.912 70.912 0.051 39.219 31.744 70.912 70.912 70.912zM307.2 890.112c39.117 0 70.861-31.693 70.861-70.912 0-39.117-31.744-70.912-70.861-70.912-39.168 0-70.861 31.795-70.861 70.912 0 39.219 31.693 70.912 70.861 70.912zM716.8 31.488c-39.219 0-70.912 31.795-70.912 70.912 0 39.219 31.693 70.912 70.912 70.912 39.117 0 70.861-31.693 70.861-70.912 0-39.117-31.744-70.912-70.861-70.912z" />
<glyph unicode="&#xe944;" glyph-name="flow-line" d="M563.2 265.011v391.578c42.24 19.456 71.68 61.85 71.68 111.411 0 67.891-54.989 122.88-122.88 122.88s-122.88-54.989-122.88-122.88c0-49.51 29.491-91.955 71.68-111.411v-391.629c-42.24-19.405-71.68-61.85-71.68-111.36 0-67.891 54.989-122.88 122.88-122.88s122.88 55.040 122.88 122.88c0 49.51-29.44 91.955-71.68 111.411zM512 838.912c39.117 0 70.861-31.693 70.861-70.912 0-39.117-31.744-70.912-70.861-70.912-39.168 0-70.861 31.795-70.861 70.912 0 39.219 31.693 70.912 70.861 70.912zM512 82.688c-39.219 0-70.912 31.795-70.912 70.912 0 39.219 31.693 70.912 70.912 70.912 39.117 0 70.861-31.693 70.861-70.912 0-39.117-31.744-70.912-70.861-70.912z" />
<glyph unicode="&#xe945;" glyph-name="flow-parallel" d="M430.080 768c0 67.891-54.989 122.88-122.88 122.88s-122.88-54.989-122.88-122.88c0-49.51 29.491-91.955 71.68-111.411v-391.629c-42.24-19.405-71.68-61.85-71.68-111.36 0-67.891 54.989-122.88 122.88-122.88s122.88 55.040 122.88 122.88c0 49.51-29.491 91.955-71.68 111.411v391.578c42.24 19.456 71.68 61.901 71.68 111.411zM378.061 153.6c0-39.117-31.744-70.912-70.861-70.912-39.219 0-70.912 31.795-70.912 70.912 0 39.219 31.693 70.912 70.912 70.912 39.117 0 70.861-31.693 70.861-70.912zM307.2 697.088c-39.168 0-70.861 31.795-70.861 70.912 0 39.219 31.693 70.912 70.912 70.912 39.117 0 70.861-31.693 70.861-70.912-0.051-39.117-31.795-70.912-70.912-70.912zM768 265.011v391.578c42.24 19.456 71.68 61.85 71.68 111.411 0 67.891-54.989 122.88-122.88 122.88s-122.88-54.989-122.88-122.88c0-49.51 29.491-91.955 71.68-111.411v-391.629c-42.24-19.456-71.68-61.85-71.68-111.411 0-67.891 54.989-122.88 122.88-122.88s122.88 55.040 122.88 122.88c0 49.562-29.44 92.006-71.68 111.462zM645.939 768c0 39.219 31.693 70.912 70.912 70.912 39.117 0 70.861-31.693 70.861-70.912 0-39.117-31.744-70.912-70.861-70.912-39.219 0-70.912 31.795-70.912 70.912zM716.8 82.688c-39.219 0-70.912 31.795-70.912 70.912 0 39.219 31.693 70.912 70.912 70.912 39.117 0 70.861-31.693 70.861-70.912 0-39.117-31.744-70.912-70.861-70.912z" />
<glyph unicode="&#xe946;" glyph-name="flow-tree" d="M921.6 213.811v118.989c0 98.97-80.23 179.2-179.2 179.2h-102.4c-42.394 0-76.8 34.406-76.8 76.8v118.989c42.24 19.456 71.68 61.85 71.68 111.411 0 67.891-54.989 122.88-122.88 122.88s-122.88-54.989-122.88-122.88c0-49.51 29.491-91.955 71.68-111.411v-118.989c0-42.394-34.406-76.8-76.8-76.8h-102.4c-98.97 0-179.2-80.23-179.2-179.2v-118.989c-42.24-19.456-71.68-61.901-71.68-111.411 0-67.891 54.989-122.88 122.88-122.88s122.88 55.040 122.88 122.88c0 49.51-29.491 91.955-71.68 111.411v118.989c0 42.394 34.406 76.8 76.8 76.8h102.4c27.597 0 53.453 6.758 76.8 17.92v-213.709c-42.24-19.456-71.68-61.901-71.68-111.411 0-67.891 54.989-122.88 122.88-122.88s122.88 55.040 122.88 122.88c0 49.51-29.491 91.955-71.68 111.411v213.709c23.347-11.162 49.203-17.92 76.8-17.92h102.4c42.394 0 76.8-34.406 76.8-76.8v-118.989c-42.24-19.456-71.68-61.85-71.68-111.411 0-67.891 54.989-122.88 122.88-122.88s122.88 55.040 122.88 122.88c0 49.51-29.44 91.955-71.68 111.411zM512 890.112c39.117 0 70.861-31.693 70.861-70.912 0-39.117-31.744-70.912-70.861-70.912-39.168 0-70.861 31.795-70.861 70.912 0 39.219 31.693 70.912 70.861 70.912zM153.6 31.488c-39.219 0-70.912 31.795-70.912 70.912 0 39.219 31.693 70.912 70.912 70.912 39.117 0 70.861-31.693 70.861-70.912 0-39.117-31.744-70.912-70.861-70.912zM512 31.488c-39.219 0-70.912 31.795-70.912 70.912 0 39.219 31.693 70.912 70.912 70.912 39.117 0 70.861-31.693 70.861-70.912 0-39.117-31.744-70.912-70.861-70.912zM870.4 31.488c-39.219 0-70.912 31.795-70.912 70.912 0 39.219 31.693 70.912 70.912 70.912 39.117 0 70.861-31.693 70.861-70.912 0-39.117-31.744-70.912-70.861-70.912z" />
<glyph unicode="&#xe947;" glyph-name="install" d="M975.821 414.822l-162.355 405.862c-11.981 30.054-41.062 49.715-73.421 49.715h-124.621l19.456-208.128h138.24l-261.12-216.474-261.12 216.474h138.24l19.456 208.128h-124.621c-32.358 0-61.44-19.661-73.421-49.715l-162.355-405.862c-14.746-36.915-19.098-77.158-12.595-116.326l30.208-181.197c6.349-38.144 39.322-66.099 77.978-66.099h736.41c38.656 0 71.629 27.955 77.978 66.099l30.208 181.197c6.605 39.168 2.253 79.411-12.544 116.326zM868.301 192.256c-3.686-22.323-22.989-38.656-45.619-38.656h-621.363c-22.63 0-41.933 16.333-45.619 38.656l-18.688 112.282c-4.762 28.211 16.998 53.862 45.619 53.862h658.79c28.57 0 50.33-25.651 45.619-53.862l-18.739-112.282z" />
<glyph unicode="&#xe948;" glyph-name="layers" d="M473.498 378.829c23.040-16.026 53.76-16.026 76.8 0l465.306 270.387c12.083 8.397 10.752 26.522-2.458 33.075l-471.296 181.094c-18.842 9.37-41.062 9.37-59.904 0l-471.296-181.094c-13.21-6.502-14.541-24.678-2.458-33.075l465.306-270.387zM1013.146 419.277l-127.283 63.13-293.12-170.342c-24.013-15.821-51.917-24.115-80.845-24.115s-56.832 8.346-80.845 24.115l-292.915 170.445-127.488-63.181c-13.21-6.554-14.541-24.678-2.458-33.075l465.306-323.021c23.040-16.026 53.76-16.026 76.8 0l465.306 323.021c12.083 8.346 10.752 26.47-2.458 33.024z" />
<glyph unicode="&#xe949;" glyph-name="open-book" d="M542.464 706.765l22.835-70.195c18.893 16.179 42.752 30.669 73.779 40.704 30.208 9.83 56.883 15.36 80.998 18.534l-22.016 67.738c-24.371-3.533-51.251-9.216-80.896-18.842-29.594-9.626-54.016-23.040-74.701-37.939zM589.926 560.589l22.835-70.195c18.893 16.179 42.752 30.669 73.779 40.704 30.208 9.83 56.883 15.36 80.998 18.534l-22.016 67.738c-24.371-3.533-51.251-9.216-80.896-18.842-29.594-9.574-53.965-22.989-74.701-37.939zM637.44 414.464l22.835-70.195c18.893 16.179 42.752 30.669 73.779 40.704 30.208 9.83 56.883 15.36 80.998 18.534l-22.016 67.738c-24.371-3.533-51.251-9.216-80.896-18.842-29.645-9.574-54.016-23.040-74.701-37.939zM275.866 303.258l22.016-67.738c21.35 11.571 46.182 22.784 76.39 32.563 31.027 10.086 58.829 12.39 83.61 10.394l-22.835 70.195c-25.549-0.102-53.146-3.584-82.688-13.158-29.645-9.626-54.733-20.787-76.493-32.256zM180.89 595.558l22.016-67.738c21.35 11.571 46.182 22.733 76.39 32.563 31.027 10.086 58.829 12.39 83.61 10.394l-22.784 70.246c-25.549-0.154-53.146-3.584-82.739-13.21-29.645-9.626-54.733-20.787-76.493-32.256zM228.352 449.382l22.016-67.738c21.35 11.571 46.182 22.784 76.39 32.563 31.027 10.086 58.829 12.39 83.61 10.394l-22.784 70.246c-25.549-0.102-53.146-3.584-82.688-13.158-29.645-9.626-54.784-20.838-76.544-32.307zM566.477 900.608c-88.218-28.672-134.298-89.702-156.314-131.021-42.086 20.48-115.2 42.752-203.418 14.080-129.178-41.984-203.213-134.502-203.213-134.502l209.664-644.454c6.451-19.814 33.075-24.422 44.954-7.322 25.549 36.813 74.752 84.89 166.758 114.79 87.962 28.57 152.013-2.765 187.136-29.594 13.926-10.65 33.894-3.072 39.014 13.722 12.902 42.342 46.438 104.448 133.632 132.762 92.109 29.952 160.205 19.917 202.547 5.12 19.712-6.861 38.4 12.39 32 32.205l-209.306 644.813c0 0-114.278 31.334-243.456-10.598zM560.691 191.693c-41.933 12.493-97.331 18.33-160.819-2.253-64.051-20.787-108.902-48.589-138.189-71.885l-166.144 511.078c18.33 18.33 60.774 53.35 136.294 77.875 71.117 23.091 129.434 3.328 167.885-19.354l160.973-495.462zM913.664 329.37c-37.427 1.638-90.061-2.253-154.112-23.091-63.488-20.634-104.858-57.958-131.43-92.672l-160.973 495.462c17.715 40.96 53.248 91.238 124.416 114.33 75.469 24.525 130.406 21.146 156.006 17.101l166.093-511.13z" />
<glyph unicode="&#xe94a;" glyph-name="resize-100" d="M209.92 250.88l-158.72-148.48 102.4-102.4 148.48 158.72 107.52-107.52v307.2h-307.2l107.52-107.52zM972.8 819.2l-102.4 102.4-148.48-158.72-107.52 107.52v-307.2h307.2l-107.52 107.52 158.72 148.48z" />
<glyph unicode="&#xe94b;" glyph-name="resize-full-screen" d="M357.734 410.266l-150.067-155.187-105.267 124.365v-328.243h327.014l-124.416 106.547 155.136 150.118-102.4 102.4zM594.586 870.4l124.416-106.547-155.136-150.118 102.4-102.4 150.067 155.187 105.267-124.365v328.243h-327.014z" />
<glyph unicode="&#xe94c;" glyph-name="save" d="M776.858 870.4h-572.058c-56.371 0-102.4-46.080-102.4-102.4v-614.4c0-56.32 46.029-102.4 102.4-102.4h614.4c56.371 0 102.4 46.080 102.4 102.4v556.698l-144.742 160.102zM716.8 563.2c0-28.109-23.040-51.2-51.2-51.2h-307.2c-28.16 0-51.2 23.091-51.2 51.2v256h409.6v-256zM665.6 768h-102.4v-204.8h102.4v204.8z" />
<glyph unicode="&#xe94d;" glyph-name="select-arrows" d="M512 921.6l-256-358.4h512l-256 358.4zM512 0l256 358.4h-512l256-358.4z" />
<glyph unicode="&#xe94e;" glyph-name="sound-mute" d="M727.091 502.067c71.117-96.41 93.082-180.070 79.821-193.382-13.312-13.21-96.922 8.704-193.434 79.821l-282.931-282.982c214.323-94.106 492.902 103.322 542.976 153.395 47.36 47.206 4.966 169.421-95.027 294.605l-51.405-51.456zM443.75 566.221c-56.269 84.89-73.267 154.778-61.133 166.912 11.93 11.981 81.92-4.915 166.758-61.286l52.378 52.48c-115.917 85.709-225.024 119.501-269.158 75.213-47.514-47.411-227.738-300.902-165.427-509.798l276.582 276.48zM948.275 897.126c-19.968 20.019-52.378 20.019-72.397 0l-800.205-800.256c-20.019-20.019-20.019-52.429 0-72.397 20.019-20.019 52.378-20.019 72.397 0l800.205 800.256c20.019 20.019 20.019 52.429 0 72.397z" />
<glyph unicode="&#xe94f;" glyph-name="sound" d="M271.974 739.021c-57.446-57.293-308.582-415.488-91.597-632.422 216.883-216.986 574.976 34.202 632.525 91.597 57.395 57.293-17.152 225.024-166.502 374.374-149.453 149.453-316.979 224.051-374.426 166.451zM746.291 248.013c-16.998-16.794-148.224 23.398-274.637 149.914-126.31 126.413-166.707 257.69-149.709 274.586 16.794 16.998 148.173-23.398 274.432-149.811 126.515-126.31 166.81-257.69 149.914-274.688zM790.221 666.522l97.485 97.587c20.019 20.019 20.019 52.378 0 72.397-19.968 20.019-52.378 20.019-72.397 0l-97.485-97.587c-20.019-20.019-20.019-52.429 0-72.397 19.968-19.968 52.378-19.968 72.397 0zM569.549 778.24c24.73-13.722 55.859-4.864 69.632 19.866l55.654 98.611c13.722 24.73 4.864 55.859-19.866 69.632-24.678 13.773-55.859 4.864-69.632-19.866l-55.654-98.611c-13.722-24.781-4.813-55.962 19.866-69.632zM1017.446 623.821c-13.67 24.73-44.902 33.638-69.632 19.866l-99.328-54.323c-24.73-13.722-33.638-44.954-19.866-69.632 13.722-24.73 44.902-33.638 69.632-19.866l99.328 54.323c24.73 13.773 33.638 44.902 19.866 69.632z" />
<glyph unicode="&#xe950;" glyph-name="trash" d="M173.517 608.614l56.371-558.49c3.123-23.603 117.094-101.222 282.112-101.325 165.12 0.102 279.091 77.722 282.163 101.325l56.422 558.49c-86.221-48.23-215.091-71.014-338.586-71.014-123.392 0-252.314 22.784-338.483 71.014zM674.202 895.488l-43.981 48.691c-16.998 24.218-35.43 28.621-71.322 28.621h-93.747c-35.84 0-54.323-4.403-71.27-28.621l-43.981-48.691c-131.584-22.989-227.021-83.968-227.021-128.973v-8.704c0-79.206 174.234-143.411 389.12-143.411 214.938 0 389.171 64.205 389.171 143.411v8.704c0 45.005-95.386 105.984-226.97 128.973zM617.984 750.592l-54.784 68.608h-102.4l-54.682-68.608h-87.040c0 0 95.334 113.715 108.083 129.126 9.728 11.776 19.661 16.282 32.563 16.282h104.602c12.954 0 22.886-4.506 32.614-16.282 12.698-15.411 108.083-129.126 108.083-129.126h-87.040z" />
<glyph unicode="&#xe951;" glyph-name="triangle-down" d="M256 665.6h512l-256-460.8-256 460.8z" />
<glyph unicode="&#xe952;" glyph-name="triangle-left" d="M716.8 716.8v-512l-460.8 256 460.8 256z" />
<glyph unicode="&#xe953;" glyph-name="triangle-right" d="M768 460.8l-460.8-256v512l460.8-256z" />
<glyph unicode="&#xe954;" glyph-name="triangle-up" d="M768 256h-512l256 460.8 256-460.8z" />
<glyph unicode="&#xe955;" glyph-name="uninstall" d="M975.821 414.822l-162.355 405.862c-11.981 30.054-41.062 49.715-73.421 49.715h-456.090c-32.358 0-61.44-19.661-73.421-49.715l-162.355-405.862c-14.746-36.915-19.098-77.158-12.595-116.326l30.208-181.197c6.349-38.144 39.322-66.099 77.978-66.099h736.41c38.656 0 71.629 27.955 77.978 66.099l30.208 181.197c6.605 39.168 2.253 79.411-12.544 116.326zM282.624 727.757l83.917 57.958 146.842-102.963 146.842 102.963 83.917-57.958-146.893-104.090 149.914-105.472-83.917-59.955-149.862 106.291-149.862-106.291-83.917 59.955 149.914 105.472-146.893 104.090zM868.301 192.256c-3.686-22.323-22.989-38.656-45.619-38.656h-621.363c-22.63 0-41.933 16.333-45.619 38.656l-18.688 112.282c-4.762 28.211 16.998 53.862 45.619 53.862h658.79c28.57 0 50.33-25.651 45.619-53.862l-18.739-112.282z" />
<glyph unicode="&#xe956;" glyph-name="upload-to-cloud" d="M778.906 632.883c-14.131 0-27.955-1.28-41.421-3.482-33.587 109.824-137.626 189.798-260.864 189.798-150.477 0-272.384-119.194-272.384-266.189 0-13.107 1.024-26.010 2.918-38.707-7.219 0.87-14.49 1.382-21.965 1.382-102.298 0-185.19-80.998-185.19-180.992s82.893-181.094 185.19-181.094h224.41v204.8h-128l230.4 256 230.4-256h-128v-204.8h164.506c135.322 0 245.094 107.315 245.094 239.616 0 132.403-109.773 239.667-245.094 239.667z" />
<glyph unicode="&#xe957;" glyph-name="upload" d="M409.6 358.4h204.8v307.2h153.6l-256 256-256-256h153.6v-307.2zM990.106 279.962c-10.752 11.469-82.483 88.218-102.963 108.237-13.568 13.261-32.973 21.402-53.35 21.402h-89.958l156.877-153.293h-181.453c-5.222 0-9.933-2.662-12.288-6.81l-41.779-95.898h-306.381l-41.779 95.898c-2.355 4.147-7.117 6.81-12.288 6.81h-181.453l156.826 153.293h-89.907c-20.326 0-39.731-8.141-53.35-21.402-20.48-20.070-92.211-96.819-102.963-108.237-25.037-26.675-38.81-47.923-32.256-74.189l28.723-157.389c6.554-26.317 35.379-47.923 64.102-47.923h835.174c28.723 0 57.549 21.606 64.102 47.923l28.723 157.389c6.451 26.266-7.27 47.514-32.358 74.189z" />
<glyph unicode="&#xe958;" glyph-name="add-user" d="M818.637-6.605c0.563 109.005-111.923 173.517-221.030 220.518-108.698 46.797-143.411 86.221-143.411 170.701 0 50.637 33.178 34.15 47.718 127.027 6.144 38.502 35.43 0.614 41.062 88.525 0 35.021-16.026 43.725-16.026 43.725s8.141 51.866 11.315 91.802c3.277 41.83-20.378 131.072-117.811 158.464-16.998 17.459-28.518 45.158 23.91 72.909-114.688 5.325-141.363-54.682-202.445-98.816-51.968-38.707-65.997-99.994-63.488-132.608 3.328-39.936 11.418-91.802 11.418-91.802s-16.077-8.704-16.077-43.725c5.632-87.962 35.021-50.022 41.114-88.525 14.541-92.877 47.77-76.39 47.77-127.027 0-84.48-10.854-113.152-119.603-159.949-109.107-46.95-143.053-122.214-142.49-231.219 0.154-32.614-0.563-44.595-0.563-44.595h819.2c0 0-0.717 11.981-0.563 44.595zM870.4 460.8v153.6h-102.4v-153.6h-153.6v-102.4h153.6v-153.6h102.4v153.6h153.6v102.4h-153.6z" />
<glyph unicode="&#xe959;" glyph-name="address" d="M1013.709 708.352l-121.6 93.696c-6.912 4.762-16.589 9.011-26.675 12.134-10.138 3.123-20.634 5.018-29.030 5.018h-350.003l41.011-256h308.992c8.397 0 18.893 1.894 28.979 5.018s19.814 7.424 26.675 12.083l121.6 93.798c6.912 4.659 10.342 10.854 10.342 17.101s-3.43 12.442-10.291 17.152zM435.2 921.6h-51.2c-14.131 0-25.6-11.469-25.6-25.6v-179.2h-170.803c-8.499 0-18.944-1.894-29.030-5.069-10.138-3.072-19.814-7.322-26.675-12.083l-121.6-93.696c-6.912-4.659-10.291-10.906-10.291-17.152 0-6.195 3.379-12.39 10.291-17.152l121.6-93.798c6.861-4.659 16.538-8.96 26.675-12.032 10.086-3.123 20.531-5.018 29.030-5.018h170.803v-435.2c0-14.131 11.469-25.6 25.6-25.6h51.2c14.131 0 25.6 11.469 25.6 25.6v870.4c0 14.131-11.469 25.6-25.6 25.6z" />
<glyph unicode="&#xe95a;" glyph-name="adjust" d="M972.8 501.811c-9.318 0-40.909 0-50.176 0-28.314 0-51.2-18.381-51.2-41.011 0-22.579 22.886-40.909 51.2-40.909 9.318 0 40.909 0 50.176 0 28.262 0 51.2 18.278 51.2 40.909 0 22.579-22.989 41.011-51.2 41.011zM512 742.4c-156.211 0-281.6-125.389-281.6-281.6s125.389-281.6 281.6-281.6c156.16 0 281.6 125.389 281.6 281.6s-125.491 281.6-281.6 281.6zM512 256c-113.203 0-204.8 91.699-204.8 204.8 0 113.203 91.597 204.8 204.8 204.8v-409.6zM153.6 460.8c0 22.579-22.989 41.011-51.2 41.011-9.472 0-41.779 0-51.2 0-28.314 0-51.2-18.381-51.2-41.011 0-22.579 22.886-40.909 51.2-40.909 9.421 0 41.728 0 51.2 0 28.211 0 51.2 18.33 51.2 40.909zM512 819.2c22.579 0 40.909 22.886 40.909 51.2 0 9.421 0 41.779 0 51.2 0 28.314-18.33 51.2-40.909 51.2-22.63 0-41.011-22.886-41.011-51.2 0-9.421 0-41.779 0-51.2 0-28.314 18.381-51.2 41.011-51.2zM512 102.4c-22.63 0-41.011-22.886-41.011-51.2 0-9.421 0-41.779 0-51.2 0-28.314 18.381-51.2 41.011-51.2 22.579 0 40.909 22.886 40.909 51.2 0 9.421 0 41.779 0 51.2 0 28.314-18.33 51.2-40.909 51.2zM889.088 779.981c20.019 20.019 23.245 49.203 7.27 65.178s-45.21 12.698-65.126-7.322c-5.53-5.478-30.362-30.31-35.84-35.789-20.019-20.019-23.245-49.203-7.27-65.178s45.21-12.698 65.178 7.322c5.478 5.53 30.259 30.31 35.789 35.789zM170.701 177.51c-5.53-5.581-30.362-30.413-35.84-35.891-20.019-20.019-23.245-49.101-7.27-65.075s45.21-12.8 65.126 7.219c5.53 5.478 30.362 30.31 35.84 35.789 20.019 20.019 23.245 49.203 7.27 65.229s-45.21 12.646-65.126-7.27zM192.768 837.888c-19.968 20.019-49.203 23.296-65.178 7.322s-12.698-45.21 7.219-65.229c5.53-5.478 30.362-30.31 35.84-35.789 20.019-20.019 49.152-23.296 65.126-7.322s12.749 45.21-7.219 65.178c-5.478 5.53-30.259 30.362-35.789 35.84zM795.341 119.501c5.53-5.478 30.362-30.31 35.84-35.789 20.019-20.019 49.152-23.194 65.126-7.322 15.974 15.974 12.749 45.21-7.27 65.178-5.478 5.478-30.31 30.31-35.789 35.789-20.019 20.019-49.203 23.296-65.229 7.322s-12.698-45.158 7.322-65.178z" />
<glyph unicode="&#xe95b;" glyph-name="air" d="M135.322 647.322c89.446 76.8 160.102 137.523 351.846 29.184 92.109-52.019 166.4-71.68 228.198-71.578 108.288 0 178.483 60.211 239.155 112.282 21.658 18.586 24.422 51.61 6.246 73.677-18.278 22.118-50.534 24.986-72.192 6.4-89.395-76.902-160.102-137.626-351.846-29.184-253.338 143.002-372.019 41.114-467.354-40.806-21.606-18.586-24.371-51.507-6.195-73.677 18.227-22.016 50.483-24.934 72.141-6.298zM888.576 535.808c-89.395-76.8-160.102-137.626-351.846-29.184-253.338 143.104-372.019 41.165-467.354-40.704-21.606-18.586-24.422-51.61-6.195-73.677 18.176-22.118 50.483-24.986 72.141-6.4 89.446 76.851 160.102 137.574 351.846 29.286 92.109-52.122 166.4-71.68 228.198-71.68 108.288 0 178.483 60.211 239.155 112.384 21.658 18.586 24.422 51.61 6.246 73.626-18.227 22.17-50.534 24.934-72.192 6.349zM888.576 274.381c-89.395-76.902-160.102-137.626-351.846-29.286-253.338 143.104-372.019 41.216-467.354-40.704-21.606-18.586-24.422-51.61-6.195-73.677 18.176-22.118 50.483-24.883 72.141-6.298 89.446 76.8 160.102 137.472 351.846 29.184 92.109-52.019 166.4-71.68 228.198-71.68 108.288 0 178.483 60.314 239.155 112.384 21.658 18.586 24.422 51.61 6.246 73.677-18.227 22.118-50.534 24.934-72.192 6.4z" />
<glyph unicode="&#xe95c;" glyph-name="aircraft-landing" d="M960.102 151.654c-4.966-13.619-42.086-51.302-308.685 44.954l-261.376 94.362c-90.982 32.819-219.034 84.429-269.21 113.51-35.123 20.326-42.803 65.638-42.803 65.638s-8.346 151.347-13.466 188.621c-5.12 37.274 4.864 43.674 40.755 25.19 22.323-11.52 95.488-131.174 126.157-182.63 77.414-19.507 146.534-38.963 178.842-48.589-13.158 87.91-37.888 252.314-46.746 303.77-8.499 49.306 28.16 27.392 28.16 27.392 16.947-9.728 50.33-33.843 61.747-51.302 77.926-119.091 188.006-337.92 196.403-354.714 45.875-14.336 116.582-37.53 158.822-52.736 110.387-39.885 158.054-155.341 151.398-173.466z" />
<glyph unicode="&#xe95d;" glyph-name="aircraft-take-off" d="M1017.344 642.406c6.093-13.158 6.502-66.048-250.061-186.47l-251.546-118.067c-87.552-41.114-214.579-95.181-270.592-110.131-39.219-10.445-76.646 16.179-76.646 16.179s-112.947 101.12-142.95 123.853c-29.952 22.733-27.392 34.304 11.008 46.592 23.91 7.629 160.256-25.242 218.368-39.936 68.557 40.96 131.174 76.083 160.819 92.058-71.475 52.89-205.21 151.654-247.859 181.76-40.909 28.928 0.512 39.322 0.512 39.322 18.842 5.069 59.494 11.674 79.974 7.373 139.315-29.133 371.866-106.035 389.683-111.923 42.598 22.323 108.954 55.91 149.606 75.008 106.24 49.869 221.542 1.894 229.683-15.616z" />
<glyph unicode="&#xe95e;" glyph-name="aircraft" d="M639.795 81.203c-20.173 56.115-92.416 244.48-122.368 322.406-56.474-37.734-119.501-73.472-179.814-98.714-18.739-65.536-56.013-189.901-74.035-206.49-30.925-28.518-42.598-24.832-47.36 14.285s-24.832 165.683-24.832 165.683-110.694 62.413-145.408 80.282-34.15 30.259 2.918 49.869c21.606 11.418 149.862 4.352 217.19-0.256 44.083 48.691 98.867 96.358 153.242 137.165-62.208 55.091-212.48 188.16-257.741 226.509-39.731 33.69 4.045 40.806 4.045 40.806 19.968 3.584 62.566 6.758 83.354 0.461 129.229-39.066 329.83-105.882 376.986-121.651 18.074 12.749 37.734 26.624 59.494 42.035 240.742 170.496 301.414 132.762 312.883 116.224s25.754-87.091-214.989-257.638c-21.76-15.411-41.37-29.338-59.392-42.138-1.485-50.176-8.038-263.731-15.923-399.923-1.28-21.914-18.79-61.338-28.928-79.053-0.051 0-21.658-39.168-39.322 10.138z" />
<glyph unicode="&#xe95f;" glyph-name="align-bottom" d="M665.6 409.6h-102.4v409.6h-102.4v-409.6h-102.4l153.6-153.6 153.6 153.6zM890.88 204.8h-757.76c-28.262 0-30.72-22.886-30.72-51.2s2.458-51.2 30.72-51.2h757.76c28.262 0 30.72 22.886 30.72 51.2s-2.458 51.2-30.72 51.2z" />
<glyph unicode="&#xe960;" glyph-name="align-horizontal-middle" d="M409.6 460.8l-153.6 153.6v-102.4h-204.8v-102.4h204.8v-102.4l153.6 153.6zM768 307.2v102.4h204.8v102.4h-204.8v102.4l-153.6-153.6 153.6-153.6zM512 51.2c28.314 0 51.2 2.509 51.2 30.72v757.76c0 28.314-22.886 30.72-51.2 30.72-28.262 0-51.2-2.406-51.2-30.72v-757.76c0-28.211 22.938-30.72 51.2-30.72z" />
<glyph unicode="&#xe961;" glyph-name="align-left" d="M307.2 460.8l153.6-153.6v102.4h409.6v102.4h-409.6v102.4l-153.6-153.6zM204.8 870.4c-28.314 0-51.2-2.406-51.2-30.72v-757.76c0-28.211 22.886-30.72 51.2-30.72 28.262 0 51.2 2.509 51.2 30.72v757.76c0 28.314-22.938 30.72-51.2 30.72z" />
<glyph unicode="&#xe962;" glyph-name="align-right" d="M563.2 614.4v-102.4h-409.6v-102.4h409.6v-102.4l153.6 153.6-153.6 153.6zM768 839.68v-757.76c0-28.211 22.938-30.72 51.2-30.72 28.314 0 51.2 2.509 51.2 30.72v757.76c0 28.314-22.886 30.72-51.2 30.72-28.262 0-51.2-2.406-51.2-30.72z" />
<glyph unicode="&#xe963;" glyph-name="align-top" d="M512 665.6l-153.6-153.6h102.4v-409.6h102.4v409.6h102.4l-153.6 153.6zM921.6 768c0 28.314-2.458 51.2-30.72 51.2h-757.76c-28.262 0-30.72-22.886-30.72-51.2s2.458-51.2 30.72-51.2h757.76c28.262 0 30.72 22.886 30.72 51.2z" />
<glyph unicode="&#xe964;" glyph-name="align-vertical-middle" d="M512 358.4l-153.6-153.6h102.4v-204.8h102.4v204.8h102.4l-153.6 153.6zM665.6 716.8h-102.4v204.8h-102.4v-204.8h-102.4l153.6-153.6 153.6 153.6zM921.6 460.8c0 28.314-2.458 51.2-30.72 51.2h-757.76c-28.262 0-30.72-22.886-30.72-51.2 0-28.211 2.458-51.2 30.72-51.2h757.76c28.262 0 30.72 22.989 30.72 51.2z" />
<glyph unicode="&#xe965;" glyph-name="archive" d="M715.827 870.4h-407.706c0 0-50.995 0-50.995-51.2h509.696c0 51.2-50.995 51.2-50.995 51.2zM868.762 716.8c0 51.2-50.944 51.2-50.944 51.2h-611.635c0 0-50.944 0-50.944-51.2v-51.2h713.523v51.2zM970.65 665.6c-30.106 30.31-30.106 30.31-30.106 30.31v-81.51h-857.088v81.51c0 0 0 0-30.157-30.31s-51.763-38.4-39.629-102.4c12.083-63.795 70.605-413.491 79.309-460.8 9.523-51.917 62.31-51.2 62.31-51.2h713.523c0 0 52.736-0.717 62.31 51.2 8.704 47.309 67.174 397.005 79.309 460.8 12.032 64-9.574 72.090-39.782 102.4zM716.8 358.554c0-28.365-22.989-51.354-51.354-51.354h-306.893c-28.365 0-51.354 22.989-51.354 51.354v102.246h51.2v-102.4h307.2v102.4h51.2v-102.246z" />
<glyph unicode="&#xe966;" glyph-name="area-graph" d="M1024 870.4v-819.2h-1007.616c-16.282 0-21.299 10.701-11.059 23.808l228.813 294.298c10.189 13.107 28.314 14.49 40.397 3.174l72.653-68.301c12.032-11.315 29.286-9.114 38.246 4.915l156.006 242.688c8.96 13.978 26.061 15.974 37.939 4.608l111.155-107.315c11.878-11.52 28.621-9.216 37.069 5.12l262.81 398.592c8.499 14.438 20.787 17.613 33.587 17.613z" />
<glyph unicode="&#xe967;" glyph-name="attachment" d="M286.822-40.96c-66.202 0-128.205 28.416-172.954 73.728-86.784 87.859-110.95 241.203 10.701 364.339 71.219 72.090 356.659 361.114 499.098 505.344 50.586 51.2 114.944 71.014 176.538 54.272 60.57-16.384 110.131-66.611 126.362-127.898 16.486-62.464-3.021-127.642-53.555-178.842l-477.338-483.328c-27.238-27.597-58.061-43.93-88.986-47.206-30.669-3.277-59.904 6.656-80.384 27.392-37.069 37.683-42.394 108.39 19.354 170.854l335.258 339.456c13.773 13.926 36.096 13.926 49.869 0s13.773-36.557 0-50.483l-335.309-339.507c-28.979-29.286-31.642-57.293-19.302-69.837 5.427-5.427 13.619-7.936 23.091-6.861 14.49 1.485 31.027 11.059 46.541 26.675l477.338 483.277c32.768 33.178 45.312 72.192 35.328 109.824-9.83 37.12-39.834 67.482-76.442 77.466-37.171 10.086-75.776-2.662-108.544-35.84-142.438-144.282-427.827-433.254-499.098-505.344-92.979-94.157-70.707-202.547-10.701-263.322 60.058-60.774 167.014-83.405 260.045 10.854l499.098 505.344c13.773 13.926 36.096 13.926 49.869 0s13.773-36.557 0-50.534l-499.098-505.344c-58.829-59.494-124.723-84.48-186.778-84.48z" />
<glyph unicode="&#xe968;" glyph-name="awareness-ribbon" d="M848.589 136.294c-38.758 53.811-145.971 195.789-233.984 312.627 35.635 51.149 64.051 92.928 77.056 114.79 79.104 132.813 44.749 218.112 1.126 290.304-43.725 72.243-50.637 113.971-180.787 113.971-130.202 0-137.114-41.728-180.787-114.022-43.725-72.192-78.029-157.491 1.075-290.304 13.005-21.811 41.421-63.642 77.107-114.79-88.064-116.787-195.277-258.816-234.035-312.627-9.011-12.493-8.192-33.997 0.461-55.398 6.656-16.486 32.256-90.214 38.502-105.677 7.987-19.917 33.997-34.304 55.398-4.71 12.339 17.101 132.198 180.48 242.278 333.926 110.029-153.395 229.939-316.826 242.278-333.926 21.35-29.594 47.411-15.206 55.398 4.71 6.246 15.514 31.846 89.19 38.502 105.677 8.55 21.453 9.421 42.957 0.41 55.45zM493.261 611.174c-54.682 75.981-93.798 164.403-93.798 164.403s21.504 38.81 112.538 38.81c91.034 0 112.538-38.81 112.538-38.81s-39.219-88.422-93.85-164.403c-4.506-6.195-11.162-15.206-18.688-25.446-7.629 10.24-14.285 19.251-18.739 25.446z" />
<glyph unicode="&#xe969;" glyph-name="back-in-time" d="M563.2 880.691c-227.584 0-412.723-182.374-418.253-409.395v-10.496h-121.446l184.013-199.373 178.893 199.373h-136.806v10.496c5.478 169.114 143.77 304.384 313.6 304.384 173.363 0 313.907-141.005 313.907-314.88s-140.544-314.88-313.907-314.88c-69.478 0-133.683 22.784-185.702 61.082l-71.987-77.005c71.066-55.706 160.512-88.986 257.69-88.986 231.168 0 418.509 187.904 418.509 419.789s-187.341 419.891-418.509 419.891zM512 716.8v-256c0-6.656 1.382-13.312 3.942-19.558 2.611-6.246 6.349-11.93 11.059-16.64l163.84-163.84c14.49 9.37 28.16 19.917 40.294 32.154l-116.736 116.685v307.2h-102.4z" />
<glyph unicode="&#xe96a;" glyph-name="back" d="M972.8 614.4v-307.2c0-56.474-45.875-102.4-102.4-102.4h-716.8v153.6h665.6v204.8h-563.2v-102.4l-204.8 179.2 204.8 179.2v-102.4h614.4c56.525 0 102.4-45.875 102.4-102.4z" />
<glyph unicode="&#xe96b;" glyph-name="bar-graph" d="M870.4 921.6h-102.4c-28.262 0-51.2-22.886-51.2-51.2v-869.99h204.8v869.99c0 28.314-22.886 51.2-51.2 51.2zM563.2 614.4h-102.4c-28.262 0-51.2-22.886-51.2-51.2v-562.79h204.8v562.79c0 28.314-22.886 51.2-51.2 51.2zM256 307.2h-102.4c-28.262 0-51.2-22.886-51.2-51.2v-255.59h204.8v255.59c0 28.314-22.886 51.2-51.2 51.2z" />
<glyph unicode="&#xe96c;" glyph-name="battery" d="M788.89 460.8c0 141.619 65.382 221.184 116.582 221.184 18.586 0 67.328 0 67.328 0-34.202 54.221-62.515 86.016-187.29 86.016h-512.41c-191.181 0-273.101-176.179-273.101-307.2s81.92-307.2 273.101-307.2h512.41c124.826 0 153.088 31.795 187.29 86.016 0 0-16.128 0-67.328 0s-116.582 79.565-116.582 221.184zM649.626 368.896c-8.397-12.8-34.611-0.819-34.611-0.819l-151.398 68.506c0 0-13.517-34.304-23.91-58.419-10.496-24.115-18.483-51.405-61.901-20.89-43.469 30.618-183.347 166.4-183.347 166.4s-17.664 14.541-8.858 28.211c8.346 12.902 34.611 0.819 34.611 0.819l151.347-68.403c0 0 13.568 34.202 23.962 58.317 10.496 24.064 18.483 51.507 61.901 20.89 43.469-30.515 183.296-166.4 183.296-166.4s17.664-14.49 8.909-28.211zM966.349 566.886h-38.349c-28.621 0-56.576-38.605-56.576-101.325 0-62.822 28.006-101.376 56.576-101.376h38.349c28.672 0 57.651 38.605 57.651 101.376 0 62.72-28.979 101.325-57.651 101.325z" />
<glyph unicode="&#xe96d;" glyph-name="beamed-note" d="M870.4 921.6l-0.102-665.6c0-63.642-66.611-153.6-191.898-153.6-63.642 0-115.2 33.434-115.2 96 0 81.357 73.984 130.56 153.6 130.56 22.118 0 38.605-3.021 51.2-6.298v375.501l-358.4-65.178v-479.386h-0.102c0-63.642-66.611-153.6-191.898-153.6-63.642 0-115.2 33.434-115.2 96 0 81.357 73.984 130.56 153.6 130.56 22.118 0 38.605-3.021 51.2-6.298v598.938l563.2 102.4z" />
<glyph unicode="&#xe96e;" glyph-name="bell" d="M750.080 536.986c-116.736 251.238-177.459 346.675-368.179 342.682-67.942-1.382-51.661 49.254-103.475 30.054-51.712-19.2-7.322-47.309-60.262-90.778-148.582-122.010-134.912-234.854-65.997-503.808 29.030-113.306-69.99-118.835-30.822-228.608 28.621-80.077 239.565-113.613 462.080-31.078 222.566 82.586 362.803 246.477 334.182 326.554-39.168 109.824-118.323 49.203-167.526 154.982zM559.309 123.136c-198.758-73.728-362.086-30.413-368.998-11.11-11.878 33.28 64.154 144.179 291.379 228.506s354.048 53.043 367.309 15.923c7.834-21.965-90.88-159.539-289.69-233.318zM495.411 302.029c-103.885-38.554-176.077-82.637-222.874-122.317 32.922-29.901 94.566-37.171 155.955-14.387 78.182 28.928 126.259 95.539 107.264 148.685-0.256 0.666-0.563 1.178-0.819 1.843-12.851-4.198-26.010-8.755-39.526-13.824z" />
<glyph unicode="&#xe96f;" glyph-name="blackboard" d="M129.997-51.2h177.203l71.987 189.338-151.859 51.405-97.331-240.742zM644.813 138.138l71.987-189.338h177.203l-97.331 240.742-151.859-51.405zM921.6 870.4h-332.8l-25.6 102.4h-102.4l-25.6-102.4h-332.8c-28.314 0-51.2-22.886-51.2-51.2v-563.2c0-28.262 22.886-51.2 51.2-51.2h819.2c28.314 0 51.2 22.938 51.2 51.2v563.2c0 28.262-22.886 51.2-51.2 51.2z" />
<glyph unicode="&#xe970;" glyph-name="block" d="M512 952.32c-271.514 0-491.571-220.058-491.571-491.52 0-271.514 220.058-491.571 491.571-491.571 271.411 0 491.52 220.058 491.52 491.571 0 271.462-220.109 491.52-491.52 491.52zM122.829 460.8c0 214.886 174.182 389.12 389.12 389.12 93.645 0 179.507-33.126 246.63-88.218l-547.533-547.533c-55.091 67.174-88.218 152.986-88.218 246.63zM511.949 71.731c-93.594 0-179.456 33.075-246.528 88.166l547.533 547.482c55.040-67.174 88.166-152.934 88.166-246.579 0-214.886-174.285-389.069-389.171-389.069z" />
<glyph unicode="&#xe971;" glyph-name="book" d="M870.4 668.16v-529.971c0-26.726-23.142-39.475-51.2-59.392-22.528-16.026-51.2 3.84-51.2 30.054 0 0 0 507.136 0 517.837 0 10.803-3.789 21.094-16.077 27.392s-396.186 208.128-396.186 208.128c-6.195 2.304-33.229 19.354-69.274 0.819-34.253-17.613-52.89-36.762-57.651-45.773l418.816-229.478c11.11-5.837 17.971-14.848 17.971-26.419v-553.062c0-11.776-7.27-24.371-18.893-29.952-5.325-2.662-11.213-3.942-17.050-3.942-6.912 0-13.875 1.69-19.763 5.325-11.008 6.707-398.029 244.019-423.578 259.43-12.288 7.373-26.675 22.477-26.982 33.69l-5.734 526.643c0 10.138-1.178 28.006 14.797 52.838 35.686 55.501 160.205 118.63 223.232 85.914l460.749-233.216c11.11-5.734 18.022-17.203 18.022-36.864z" />
<glyph unicode="&#xe972;" glyph-name="bowl" d="M867.789 590.234c-111.411-148.582-209.664-153.702-360.755-161.382h-5.171c-183.859 0.102-314.266 68.403-314.266 93.798-0.102 24.115 117.658 86.886 286.976 93.133l30.208 75.418c-0.973 0-1.894 0.102-2.918 0.102-251.29 0-398.899-79.974-398.899-156.211v-102.4c0-47.002 29.798-458.189 388.198-458.189s409.6 411.187 409.6 458.189v102.4c0 20.019-10.291 40.294-29.901 59.29l-3.072-4.147zM900.557 834.458c-22.579 16.896-54.733 12.39-71.629-10.291l-184.73-246.221 119.603 298.906c10.547 26.214-2.253 56.013-28.518 66.611-26.010 10.496-56.115-2.202-66.56-28.621l-166.861-416.87c147.558 7.526 218.982 11.622 310.63 133.683 91.597 122.214 98.253 131.123 98.253 131.123 16.998 22.579 12.442 54.682-10.189 71.68z" />
<glyph unicode="&#xe973;" glyph-name="box" d="M942.029 870.4h-860.109c-16.998 0-30.72-13.67-30.72-30.72v-122.88h921.6v122.88c0 17.050-13.824 30.72-30.771 30.72zM102.4 122.88c0-39.424 32.205-71.68 71.629-71.68h675.84c39.424 0 71.68 32.307 71.68 71.68v542.72h-819.149v-542.72zM358.4 563.2h307.2v-102.4h-307.2v102.4z" />
<glyph unicode="&#xe974;" glyph-name="briefcase" d="M460.8 460.8h102.4v-102.4h460.8c0 0-7.629 228.301-10.24 299.725-2.56 67.891-26.88 109.875-102.4 109.875h-164.25c-25.446 48.026-52.838 99.584-61.286 115.507-16.947 31.898-22.733 38.093-60.365 38.093h-226.97c-37.632 0-43.366-6.195-60.365-38.093-8.448-15.923-35.84-67.482-61.235-115.507h-164.301c-75.571 0-99.584-41.984-102.4-109.875-2.765-67.942-10.189-299.725-10.189-299.725h460.8v102.4zM391.629 823.501c11.776 22.118 15.77 26.419 41.83 26.419h157.030c26.061 0 30.106-4.301 41.779-26.419 4.403-8.192 16.282-30.72 29.44-55.501h-299.52c13.158 24.781 25.037 47.309 29.44 55.501zM563.2 204.8h-102.4v102.4h-435.2c0 0 6.349-92.006 10.189-170.086 1.587-32.41 11.162-85.914 92.16-85.914h768.051c80.998 0 90.368 53.606 92.16 85.914 4.454 80.282 10.24 170.086 10.24 170.086h-435.2v-102.4z" />
<glyph unicode="&#xe975;" glyph-name="browser" d="M921.6 870.4h-819.2c-56.32 0-102.4-46.080-102.4-102.4v-614.4c0-56.32 46.080-102.4 102.4-102.4h819.2c56.32 0 102.4 46.080 102.4 102.4v614.4c0 56.32-46.080 102.4-102.4 102.4zM230.4 780.8c21.197 0 38.4-17.203 38.4-38.4s-17.203-38.4-38.4-38.4c-21.197 0-38.4 17.203-38.4 38.4s17.203 38.4 38.4 38.4zM89.6 742.4c0 21.197 17.203 38.4 38.4 38.4s38.4-17.203 38.4-38.4c0-21.197-17.203-38.4-38.4-38.4s-38.4 17.203-38.4 38.4zM921.6 153.6h-819.2v460.8h819.2v-460.8zM921.6 716.8h-614.4v51.2h615.373l-0.973-51.2z" />
<glyph unicode="&#xe976;" glyph-name="brush" d="M141.466 278.374c-77.568-76.186-12.032-154.419-115.046-270.285-46.49-52.378 191.386-36.403 309.197 79.411 50.022 49.203 35.891 120.781-17.715 173.517-53.606 52.634-126.464 66.56-176.435 17.357zM1000.397 939.059c-39.731 39.117-480.205-313.805-611.277-442.675-65.075-64-86.784-98.304-106.701-123.904-8.704-11.213 2.816-14.592 7.885-17.203 25.805-13.21 43.827-25.395 67.123-48.282 23.347-22.886 35.789-40.602 49.101-65.997 2.714-5.018 6.195-16.282 17.51-7.782 26.112 19.61 60.979 41.011 126.054 104.909 131.123 128.819 490.138 561.869 450.304 600.934z" />
<glyph unicode="&#xe977;" glyph-name="bucket" d="M563.2 921.6c-251.29 0-409.498-81.51-398.848-151.040 3.072-19.917 11.52-99.584 22.221-167.578-123.136-47.821-163.942-125.389-158.464-188.621 6.502-74.803 73.779-154.88 221.594-168.704 84.378-7.885 185.907 38.4 251.699 117.504-6.246 10.598-9.882 23.040-9.882 36.198 0 39.629 32.102 71.68 71.68 71.68 39.629 0 71.68-32.102 71.68-71.68 0-39.014-31.232-70.707-70.093-71.578-78.285-101.018-197.53-161.997-310.477-154.88 2.611-16.589 3.584-48.486 4.915-56.986 4.608-29.645 120.166-115.712 303.974-115.917 183.808 0.205 299.366 86.272 304.026 115.866 4.506 29.542 84.019 584.141 94.822 654.694 10.65 69.53-147.61 151.040-398.848 151.040zM99.482 420.608c-2.816 32.922 23.296 76.698 98.509 109.517 10.803-68.608 22.579-143.206 32.922-208.589-82.125 16.026-127.898 58.829-131.43 99.072zM563.2 664.371c-183.808 0.102-314.214 68.301-314.214 93.798-0.102 25.293 130.406 91.648 314.214 91.546 183.808 0.102 314.317-66.253 314.214-91.546 0-25.498-130.406-93.696-314.214-93.798z" />
<glyph unicode="&#xe978;" glyph-name="cake" d="M490.701 663.757c99.942 0 132.659 70.707 94.157 145.562-44.595 86.682 97.024 161.536 26.675 161.536-66.611 0-191.283-72.602-214.528-162.97-17.357-67.789 15.155-144.128 93.696-144.128zM757.555 205.466l-22.733 19.61c-24.934 21.504-64 21.402-88.832 0l-22.63-19.558c-31.744-27.341-71.526-41.011-111.309-41.011s-79.565 13.67-111.258 40.96l-22.733 19.661c-24.934 21.402-63.949 21.453-88.781-0.051l-22.733-19.61c-61.082-52.634-151.91-54.067-215.245-5.12v-200.346c0-28.262 22.938-51.2 51.2-51.2h819.2c28.262 0 51.2 22.938 51.2 51.2v200.294c-63.334-48.845-154.163-47.565-215.347 5.171zM512 614.4c-387.789 0-460.8-172.083-460.8-256v-24.013l59.597-51.354c24.883-21.555 63.949-21.35 88.832 0l22.733 19.61c63.334 54.528 158.976 54.579 222.464 0l22.733-19.661c24.781-21.35 63.744-21.504 88.832 0.051l22.63 19.558c63.488 54.63 159.078 54.63 222.515 0.051l22.733-19.61c24.934-21.555 64-21.35 88.832 0l59.699 51.354v24.013c0 83.917-73.011 256-460.8 256z" />
<glyph unicode="&#xe979;" glyph-name="calculator" d="M747.52 921.6h-471.142c-39.373 0-71.578-32.205-71.578-71.68v-778.24c0-39.424 32.205-71.68 71.578-71.68h471.142c39.373 0 71.68 32.307 71.68 71.68v778.24c0 39.475-32.307 71.68-71.68 71.68zM358.4 358.4c35.277 0 64-22.886 64-51.2s-28.723-51.2-64-51.2c-35.328 0-64 22.886-64 51.2s28.672 51.2 64 51.2zM294.4 460.8c0 28.314 28.672 51.2 64 51.2 35.277 0 64-22.886 64-51.2s-28.723-51.2-64-51.2c-35.328 0-64 22.886-64 51.2zM358.4 204.8c35.277 0 64-22.886 64-51.2s-28.723-51.2-64-51.2c-35.328 0-64 22.886-64 51.2s28.672 51.2 64 51.2zM512 358.4c35.277 0 64-22.886 64-51.2s-28.723-51.2-64-51.2c-35.328 0-64 22.886-64 51.2s28.672 51.2 64 51.2zM448 460.8c0 28.314 28.672 51.2 64 51.2 35.277 0 64-22.886 64-51.2s-28.723-51.2-64-51.2c-35.328 0-64 22.886-64 51.2zM512 204.8c35.277 0 64-22.886 64-51.2s-28.723-51.2-64-51.2c-35.328 0-64 22.886-64 51.2s28.672 51.2 64 51.2zM665.6 358.4c35.277 0 64-22.886 64-51.2s-28.723-51.2-64-51.2c-35.328 0-64 22.886-64 51.2s28.672 51.2 64 51.2zM601.6 460.8c0 28.314 28.672 51.2 64 51.2 35.277 0 64-22.886 64-51.2s-28.723-51.2-64-51.2c-35.328 0-64 22.886-64 51.2zM665.6 204.8c35.277 0 64-22.886 64-51.2s-28.723-51.2-64-51.2c-35.328 0-64 22.886-64 51.2s28.672 51.2 64 51.2zM256 614.4v153.6h512v-153.6h-512z" />
<glyph unicode="&#xe97a;" glyph-name="calendar" d="M870.4 819.2h-51.2v-102.4h-153.6v102.4h-307.2v-102.4h-153.6v102.4h-51.2c-56.371 0-102.4-46.080-102.4-102.4v-614.4c0-56.32 46.029-102.4 102.4-102.4h716.8c56.32 0 102.4 46.080 102.4 102.4v614.4c0 56.32-46.080 102.4-102.4 102.4zM870.4 102.4h-716.8v409.6h716.8v-409.6zM332.8 921.6h-102.4v-179.2h102.4v179.2zM793.6 921.6h-102.4v-179.2h102.4v179.2z" />
<glyph unicode="&#xe97b;" glyph-name="camera" d="M512 563.2c-84.838 0-153.6-68.813-153.6-153.6s68.762-153.6 153.6-153.6c84.787 0 153.6 68.813 153.6 153.6s-68.813 153.6-153.6 153.6zM921.6 716.8h-122.88c-16.896 0-35.123 13.107-40.397 29.184l-31.795 95.283c-5.376 16.026-23.501 29.133-40.448 29.133h-348.16c-16.896 0-35.123-13.107-40.397-29.082l-31.846-95.334c-5.325-16.077-23.501-29.184-40.397-29.184h-122.88c-56.32 0-102.4-46.080-102.4-102.4v-460.8c0-56.32 46.080-102.4 102.4-102.4h819.2c56.32 0 102.4 46.080 102.4 102.4v460.8c0 56.32-46.080 102.4-102.4 102.4zM512 153.6c-141.414 0-256 114.586-256 256s114.586 256 256 256c141.363 0 256-114.586 256-256s-114.637-256-256-256zM896 552.96c-19.814 0-35.84 16.077-35.84 35.891 0 19.712 16.026 35.84 35.84 35.84s35.84-16.077 35.84-35.84c0-19.814-16.026-35.891-35.84-35.891z" />
<glyph unicode="&#xe97c;" glyph-name="ccw" d="M35.072 460.8h121.446v10.496c5.53 227.021 190.669 409.395 418.253 409.395 231.168 0 418.509-188.006 418.509-419.891s-187.341-419.789-418.509-419.789c-97.178 0-186.624 33.28-257.69 88.986l71.987 77.005c52.019-38.298 116.224-61.082 185.702-61.082 173.363 0 313.907 141.005 313.907 314.88s-140.544 314.88-313.907 314.88c-169.83 0-308.122-135.322-313.6-304.384v-10.496h136.806l-178.893-199.373-184.013 199.373z" />
<glyph unicode="&#xe97d;" glyph-name="chat" d="M296.96 348.16v317.44h-194.56c-56.32 0-102.4-46.080-102.4-102.4v-307.2c0-56.32 46.080-102.4 102.4-102.4h51.2v-153.6l153.6 153.6h256c56.32 0 102.4 46.080 102.4 102.4v93.184c-3.277-0.717-6.758-1.075-10.24-1.075l-358.4 0.051zM921.6 921.6h-460.8c-56.32 0-102.4-46.080-102.4-102.4v-409.6h358.4l153.6-153.6v153.6h51.2c56.32 0 102.4 46.029 102.4 102.4v307.2c0 56.32-46.080 102.4-102.4 102.4z" />
<glyph unicode="&#xe97e;" glyph-name="check" d="M424.653 102.502c-22.272 0-43.366 10.394-56.883 28.314l-182.938 241.715c-23.808 31.386-17.613 76.083 13.824 99.891 31.488 23.91 76.186 17.613 99.994-13.824l120.371-158.925 302.643 485.99c20.838 33.382 64.87 43.622 98.355 22.784 33.434-20.787 43.725-64.819 22.835-98.304l-357.581-573.952c-12.39-20.019-33.843-32.512-57.344-33.587-1.126-0.102-2.15-0.102-3.277-0.102z" />
<glyph unicode="&#xe97f;" glyph-name="circle-with-cross" d="M512 890.88c-237.517 0-430.080-192.563-430.080-430.080s192.563-430.080 430.080-430.080 430.080 192.563 430.080 430.080c0 237.517-192.563 430.080-430.080 430.080zM757.197 304.077l-88.525-88.525-156.672 156.723-156.723-156.672-88.525 88.525 156.774 156.672-156.723 156.723 88.525 88.474 156.672-156.672 156.723 156.723 88.525-88.525-156.774-156.723 156.723-156.723z" />
<glyph unicode="&#xe980;" glyph-name="circle-with-minus" d="M512 890.88c-237.517 0-430.080-192.563-430.080-430.080s192.563-430.080 430.080-430.080 430.080 192.563 430.080 430.080c0 237.517-192.563 430.080-430.080 430.080zM768 409.6h-512v102.4h512v-102.4z" />
<glyph unicode="&#xe981;" glyph-name="circle-with-plus" d="M512 890.88c-237.517 0-430.080-192.563-430.080-430.080s192.563-430.080 430.080-430.080 430.080 192.563 430.080 430.080c0 237.517-192.563 430.080-430.080 430.080zM768 409.6h-204.8v-204.8h-102.4v204.8h-204.8v102.4h204.8v204.8h102.4v-204.8h204.8v-102.4z" />
<glyph unicode="&#xe982;" glyph-name="circle" d="M512 952.32c-271.462 0-491.52-220.058-491.52-491.52s220.058-491.52 491.52-491.52c271.411 0 491.52 220.058 491.52 491.571 0 271.411-220.109 491.469-491.52 491.469zM512 71.731c-214.886 0-389.12 174.182-389.12 389.12s174.182 389.069 389.12 389.069c214.886 0 389.171-174.182 389.171-389.12s-174.285-389.069-389.171-389.069z" />
<glyph unicode="&#xe983;" glyph-name="circular-graph" d="M900.301 492.954h102.4c-3.328 53.709-15.002 105.114-34.202 152.781l-89.907-51.917c11.469-31.898 18.995-65.69 21.709-100.864zM721.971 906.496c-48.896 23.091-101.888 38.758-158.003 44.544v-103.475c37.53-4.966 73.37-15.104 106.701-29.952l51.302 88.883zM831.59 684.954l89.139 51.456c-30.259 44.954-68.096 84.224-111.206 116.992l-51.507-89.19c28.109-22.835 52.787-49.562 73.574-79.258zM512.717 73.165c-214.886 0-389.12 174.182-389.12 389.12 0 197.53 147.302 360.243 337.971 385.331v103.475c-247.45-25.6-440.371-234.65-440.371-488.806 0-271.514 220.058-491.571 491.571-491.571 246.989 0 450.918 182.426 485.683 419.84h-103.475c-33.69-180.582-191.898-317.389-382.259-317.389z" />
<glyph unicode="&#xe984;" glyph-name="clapperboard" d="M1024 819.2v-716.8c0-28.262-22.886-51.2-51.2-51.2h-921.6c-28.314 0-51.2 22.938-51.2 51.2v716.8c0 28.314 22.886 51.2 51.2 51.2h51.2l153.6-153.6h128l-153.6 153.6h153.6l153.6-153.6h128l-153.6 153.6h153.6l153.6-153.6h128l-153.6 153.6h179.2c28.314 0 51.2-22.938 51.2-51.2z" />
<glyph unicode="&#xe985;" glyph-name="clipboard" d="M798.72 870.4l-61.44-153.6h-450.56l-61.44 153.6c-39.475 0-71.68-32.205-71.68-71.68v-778.24c0-39.424 32.205-71.68 71.629-71.68h573.44c39.424 0 71.68 32.307 71.68 71.68v778.24c0.051 39.475-32.256 71.68-71.629 71.68zM696.32 768l46.080 102.4h-111.667l-36.813 102.4h-163.84l-36.864-102.4h-111.616l46.029-102.4h368.691z" />
<glyph unicode="&#xe986;" glyph-name="clock" d="M512 952.32c-271.514 0-491.571-220.058-491.571-491.52 0-271.514 220.058-491.571 491.571-491.571 271.411 0 491.52 220.058 491.52 491.571 0 271.462-220.109 491.52-491.52 491.52zM511.949 71.68c-214.886 0-389.12 174.182-389.12 389.12 0 214.886 174.182 389.12 389.12 389.12 214.886 0 389.171-174.182 389.171-389.12 0-214.886-174.285-389.12-389.171-389.12zM563.2 495.104v272.896h-102.4v-319.744l-181.555-104.858 51.2-88.678 210.688 121.702c12.186 7.014 22.067 24.218 22.067 38.298v8.602l217.088 213.299c-10.138 13.875-21.043 27.085-33.126 39.219l-183.962-180.736z" />
<glyph unicode="&#xe987;" glyph-name="code" d="M292.813 217.6c-12.083 0-24.269 4.25-33.997 12.902l-259.072 230.298 273.459 243.098c21.094 18.688 53.453 16.896 72.243-4.25s16.896-53.504-4.25-72.294l-187.341-166.554 172.954-153.702c21.146-18.79 23.040-51.149 4.25-72.294-10.086-11.418-24.166-17.203-38.246-17.203zM750.797 217.702l273.459 243.098-259.072 230.298c-21.146 18.79-53.504 16.896-72.243-4.25-18.79-21.146-16.896-53.504 4.25-72.294l172.954-153.754-187.341-166.502c-21.146-18.79-23.040-51.149-4.25-72.294 10.086-11.418 24.166-17.203 38.246-17.203 12.083 0 24.269 4.25 33.997 12.902zM511.283 145.152l102.4 614.4c4.659 27.904-14.182 54.272-42.086 58.931-28.006 4.71-54.323-14.182-58.88-42.086l-102.4-614.4c-4.659-27.904 14.182-54.272 42.086-58.931 2.867-0.461 5.632-0.666 8.448-0.666 24.576 0 46.285 17.766 50.432 42.752z" />
<glyph unicode="&#xe988;" glyph-name="cog" d="M859.29 460.8c0 53.709 33.075 96 82.79 125.082-9.011 29.901-20.838 58.624-35.43 85.606-55.757-14.592-100.864 7.219-138.803 45.21-37.939 37.888-49.562 82.995-34.97 138.803-26.982 14.592-55.706 26.522-85.606 35.379-29.082-49.664-81.664-82.688-135.27-82.688-53.658 0-106.189 33.024-135.322 82.688-29.952-8.858-58.573-20.787-85.555-35.379 14.592-55.808 3.021-100.915-35.021-138.803-37.888-37.99-82.995-59.802-138.803-45.21-14.592-26.982-26.47-55.706-35.379-85.606 49.664-29.082 82.688-71.373 82.688-125.082 0-53.606-33.024-106.189-82.688-135.322 8.96-29.901 20.787-58.573 35.379-85.606 55.808 14.592 100.915 3.021 138.803-34.918 37.939-37.99 49.613-83.098 35.021-138.803 26.982-14.592 55.654-26.522 85.606-35.482 29.082 49.818 81.664 82.79 135.322 82.79 53.606 0 106.189-33.024 135.322-82.79 29.901 9.011 58.573 20.89 85.606 35.482-14.592 55.706-3.021 100.813 34.97 138.803 37.939 37.888 83.046 59.699 138.803 45.21 14.592 26.982 26.47 55.603 35.43 85.606-49.818 29.133-82.893 71.424-82.893 125.030zM512 273.818c-103.322 0-187.034 83.712-187.034 186.982 0 103.322 83.763 187.085 187.034 187.085 103.322 0 186.982-83.814 186.982-187.085 0-103.322-83.661-186.982-186.982-186.982z" />
<glyph unicode="&#xe989;" glyph-name="colours" d="M162.765 665.702c-21.658 17.92-54.118 14.848-72.090-6.758l-65.382-78.797c-17.92-21.658-14.899-54.17 6.707-72.038l403.866-334.95-194.918 427.725-78.182 64.819zM359.066 835.43l-93.184-42.445c-25.549-11.674-36.966-42.24-25.344-67.789l217.6-477.44 10.906 469.965-42.086 92.365c-11.776 25.6-42.291 37.018-67.891 25.344zM727.603 824.986c0.666 28.16-21.862 51.712-49.971 52.378l-102.4 2.355c-28.109 0.666-51.661-21.862-52.326-49.971l-12.237-524.442 214.528 418.15 2.406 101.53zM982.579 776.346l-91.085 46.746c-25.037 12.8-56.115 2.816-68.966-22.221l-327.219-637.747c-12.851-25.037-2.867-56.115 22.221-68.966l91.085-46.746c25.037-12.851 56.064-2.867 68.915 22.17l327.219 637.747c12.851 25.139 2.867 56.166-22.17 69.018zM655.309 138.598c-12.902-25.19-43.776-35.123-68.915-22.221-25.19 12.902-35.072 43.725-22.17 68.915s43.725 35.072 68.915 22.17c25.19-12.851 35.072-43.725 22.17-68.864z" />
<glyph unicode="&#xe98a;" glyph-name="compass" d="M279.245 227.942c0 0 233.882 32.102 333.722 131.891s131.891 333.722 131.891 333.722-233.933-32.102-333.722-131.891-131.891-333.722-131.891-333.722zM461.67 511.232c41.882 41.882 122.112 71.68 190.925 90.214-18.483-68.71-48.384-149.504-90.112-191.078-27.802-27.904-73.011-27.904-100.813 0-27.904 27.802-27.904 72.96 0 100.864zM512.051 952.32c-271.514 0-491.571-220.058-491.571-491.52 0-271.514 220.058-491.571 491.571-491.571 271.411 0 491.52 220.058 491.52 491.571 0 271.462-220.109 491.52-491.52 491.52zM512 71.68c-214.886 0-389.12 174.182-389.12 389.12 0 214.886 174.182 389.12 389.12 389.12 214.886 0 389.171-174.182 389.171-389.12 0-214.886-174.285-389.12-389.171-389.12z" />
<glyph unicode="&#xe98b;" glyph-name="copy" d="M563.2 972.8h-409.6c-28.314 0-51.2-22.886-51.2-51.2v-614.4c0-28.262 22.886-51.2 51.2-51.2h256v-102.4h102.4v102.4h-102.349v102.4h102.349v102.4h-102.4v-102.4h-204.8v512h307.2v-204.8h102.4v256c0 28.262-22.886 51.2-51.2 51.2zM409.6 614.4v-51.2h102.4v102.4h-51.2c-28.314 0-51.2-22.886-51.2-51.2zM614.4-51.2h102.4v102.4h-102.4v-102.4zM614.4 563.2h102.4v102.4h-102.4v-102.4zM409.6 0c0-28.262 22.886-51.2 51.2-51.2h51.2v102.4h-102.4v-51.2zM870.4 665.6h-51.2v-102.4h102.4v51.2c0 28.262-22.886 51.2-51.2 51.2zM819.2-51.2h51.2c28.314 0 51.2 22.938 51.2 51.2v51.2h-102.4v-102.4zM819.2 358.4h102.4v102.4h-102.4v-102.4zM819.2 153.6h102.4v102.4h-102.4v-102.4z" />
<glyph unicode="&#xe98c;" glyph-name="credit-card" d="M921.6 819.2h-819.2c-56.371 0-102.4-46.080-102.4-102.4v-512c0-56.32 46.029-102.4 102.4-102.4h819.2c56.32 0 102.4 46.080 102.4 102.4v512c0 56.32-46.080 102.4-102.4 102.4zM921.6 204.8h-819.2v307.2h819.2v-307.2zM921.6 665.6h-819.2v51.2h819.2v-51.2zM204.8 404.48v-30.72h30.72v30.72h-30.72zM389.12 343.091v-30.771h61.44v30.771h30.72v30.72h30.72v30.72h-61.44v-30.72h-30.771v-30.72h-30.669zM512 312.32v30.771h-30.771v-30.771h30.771zM358.4 312.32v30.771h-61.44v-30.771h61.44zM389.12 373.811h30.72v30.72h-61.44v-61.389h30.72v30.669zM266.189 343.091h30.771v30.72h30.72v30.72h-61.44v-30.72h-30.72v-30.72h-30.72v-30.771h61.389v30.771z" />
<glyph unicode="&#xe98d;" glyph-name="credit" d="M563.2 114.944v-114.944h-102.4v109.722c-87.654 5.12-156.979 30.157-217.139 92.006l87.962 89.088c43.981-44.544 103.578-59.392 168.038-59.392 80.128 0 123.136 30.669 123.136 87.142 0 24.73-6.81 45.517-21.504 59.392-13.67 12.851-29.286 19.814-61.542 24.73l-84.070 11.878c-59.597 8.909-103.526 27.699-134.861 58.419-33.178 33.638-49.818 79.155-49.818 138.598 0 110.336 70.758 191.642 189.798 209.92v100.096h102.4v-98.918c70.758-7.424 126.208-31.744 174.848-79.411l-85.965-86.118c-43.981 42.598-96.717 48.486-142.694 48.486-72.294 0-107.469-40.55-107.469-89.088 0-17.818 5.888-36.659 20.531-50.483 13.67-12.902 36.147-23.757 64.512-27.699l82.022-11.878c63.539-8.909 103.578-26.726 132.915-54.426 37.171-35.635 53.76-87.142 53.76-149.504 0-115.2-80.23-187.494-192.461-207.616z" />
<glyph unicode="&#xe98e;" glyph-name="cross" d="M734.618 212.531c-24.013-24.013-62.925-24.013-86.886 0l-135.731 155.136-135.731-155.085c-24.013-24.013-62.925-24.013-86.886 0-24.013 24.013-24.013 62.925 0 86.886l141.21 161.28-141.261 161.382c-24.013 24.013-24.013 62.874 0 86.886s62.874 24.013 86.886 0l135.782-155.187 135.731 155.187c24.013 24.013 62.874 24.013 86.886 0s24.013-62.925 0-86.886l-141.21-161.382 141.21-161.28c24.013-24.013 24.013-62.925 0-86.938z" />
<glyph unicode="&#xe98f;" glyph-name="cup" d="M512 921.6c-219.085 0-355.328-72.192-347.904-130.816l73.83-689.51c2.97-23.552 113.715-101.171 274.074-101.274 160.307 0.102 271.104 77.722 273.971 101.325l73.83 689.51c7.424 58.573-128.717 130.765-347.802 130.765zM512 701.901c-160.358 0.102-274.074 57.19-274.074 78.592-0.051 21.197 113.766 78.387 274.074 78.285 160.307 0.102 274.125-57.088 273.971-78.285 0-21.402-113.664-78.49-273.971-78.592z" />
<glyph unicode="&#xe990;" glyph-name="cw" d="M988.928 460.8h-121.446v10.496c-5.53 227.021-190.669 409.395-418.253 409.395-231.168 0-418.509-188.006-418.509-419.891s187.341-419.789 418.509-419.789c97.178 0 186.624 33.28 257.69 88.986l-71.987 77.005c-52.019-38.298-116.224-61.082-185.702-61.082-173.363 0-313.907 141.005-313.907 314.88s140.544 314.88 313.907 314.88c169.83 0 308.122-135.322 313.6-304.384v-10.496h-136.806l178.893-199.373 184.013 199.373z" />
<glyph unicode="&#xe991;" glyph-name="cycle" d="M282.419 244.531c-115.814 124.518-113.766 319.693 6.554 440.883 49.254 49.613 110.797 79.206 174.797 88.883l-3.533 106.342c-89.856-10.906-176.742-50.995-245.606-120.371-161.229-162.304-163.174-424.397-6.298-590.387l-89.139-89.702 282.112-15.411-0.768 298.701-118.118-118.938zM622.746 856.832l0.768-298.701 118.118 118.886c115.814-124.621 113.766-319.795-6.554-440.883-49.203-49.613-110.797-79.206-174.797-88.883l3.533-106.291c89.856 10.906 176.742 50.995 245.658 120.32 161.178 162.406 163.123 424.499 6.246 590.387l89.139 89.805-282.112 15.36z" />
<glyph unicode="&#xe992;" glyph-name="database" d="M856.371 325.581c-43.162-69.786-180.992-120.883-344.371-120.883s-301.21 51.098-344.422 120.883c-9.114 14.848-13.978 6.912-13.978-0.358 0-7.373 0-102.502 0-102.502 0-99.328 160.461-202.24 358.4-202.24s358.4 102.912 358.4 202.189c0 0 0 95.13 0 102.502 0 7.322-4.915 15.258-14.029 0.41zM856.934 587.52c-42.496-61.696-180.838-107.008-344.934-107.008s-302.49 45.312-344.986 107.008c-8.755 12.698-13.414 5.786-13.414 0.102 0-5.786 0-120.678 0-120.678 0-90.214 160.461-163.277 358.4-163.277s358.4 73.114 358.4 163.277c0 0 0 114.893 0 120.678 0 5.683-4.71 12.595-13.466-0.102zM512 921.6c-197.939 0-358.4-60.416-358.4-134.81v-64.512c0-78.899 160.461-142.899 358.4-142.899s358.4 64 358.4 142.899v64.512c0 74.394-160.461 134.81-358.4 134.81z" />
<glyph unicode="&#xe993;" glyph-name="dial-pad" d="M307.2 972.8h-102.4c-28.262 0-51.2-22.938-51.2-51.2v-102.4c0-28.262 22.938-51.2 51.2-51.2h102.4c28.262 0 51.2 22.938 51.2 51.2v102.4c0 28.262-22.938 51.2-51.2 51.2zM563.2 972.8h-102.4c-28.262 0-51.2-22.938-51.2-51.2v-102.4c0-28.262 22.938-51.2 51.2-51.2h102.4c28.262 0 51.2 22.938 51.2 51.2v102.4c0 28.262-22.938 51.2-51.2 51.2zM819.2 972.8h-102.4c-28.262 0-51.2-22.938-51.2-51.2v-102.4c0-28.262 22.938-51.2 51.2-51.2h102.4c28.262 0 51.2 22.938 51.2 51.2v102.4c0 28.262-22.938 51.2-51.2 51.2zM307.2 716.8h-102.4c-28.262 0-51.2-22.938-51.2-51.2v-102.4c0-28.262 22.938-51.2 51.2-51.2h102.4c28.262 0 51.2 22.938 51.2 51.2v102.4c0 28.262-22.938 51.2-51.2 51.2zM563.2 716.8h-102.4c-28.262 0-51.2-22.938-51.2-51.2v-102.4c0-28.262 22.938-51.2 51.2-51.2h102.4c28.262 0 51.2 22.938 51.2 51.2v102.4c0 28.262-22.938 51.2-51.2 51.2zM819.2 716.8h-102.4c-28.262 0-51.2-22.938-51.2-51.2v-102.4c0-28.262 22.938-51.2 51.2-51.2h102.4c28.262 0 51.2 22.938 51.2 51.2v102.4c0 28.262-22.938 51.2-51.2 51.2zM307.2 460.8h-102.4c-28.262 0-51.2-22.938-51.2-51.2v-102.4c0-28.262 22.938-51.2 51.2-51.2h102.4c28.262 0 51.2 22.938 51.2 51.2v102.4c0 28.262-22.938 51.2-51.2 51.2zM563.2 460.8h-102.4c-28.262 0-51.2-22.938-51.2-51.2v-102.4c0-28.262 22.938-51.2 51.2-51.2h102.4c28.262 0 51.2 22.938 51.2 51.2v102.4c0 28.262-22.938 51.2-51.2 51.2zM563.2 153.6h-102.4c-28.262 0-51.2-22.938-51.2-51.2v-102.4c0-28.262 22.938-51.2 51.2-51.2h102.4c28.262 0 51.2 22.938 51.2 51.2v102.4c0 28.262-22.938 51.2-51.2 51.2zM819.2 460.8h-102.4c-28.262 0-51.2-22.938-51.2-51.2v-102.4c0-28.262 22.938-51.2 51.2-51.2h102.4c28.262 0 51.2 22.938 51.2 51.2v102.4c0 28.262-22.938 51.2-51.2 51.2z" />
<glyph unicode="&#xe994;" glyph-name="direction" d="M924.672 873.421c-30.003 30.003-58.573 1.69-155.699-45.005-259.84-124.877-712.653-378.675-712.653-378.675l389.069-55.501 55.552-389.069c0 0 253.85 452.762 378.675 712.499 46.694 97.178 75.008 125.747 45.056 155.75zM831.283 773.325l-282.573-524.646-28.723 238.336 311.296 286.31z" />
<glyph unicode="&#xe995;" glyph-name="document" d="M819.2 921.6h-614.4c-28.314 0-51.2-22.886-51.2-51.2v-819.2c0-28.262 22.886-51.2 51.2-51.2h614.4c28.314 0 51.2 22.938 51.2 51.2v819.2c0 28.262-22.886 51.2-51.2 51.2zM768 102.4h-512v716.8h512v-716.8z" />
<glyph unicode="&#xe996;" glyph-name="documents" d="M993.178 593.152l-381.133 102.195-66.714 248.883c-5.581 20.787-27.904 32.87-49.818 27.085l-464.691-124.518c-21.914-5.837-35.123-27.546-29.542-48.333l165.376-617.011c5.581-20.787 27.853-32.922 49.715-26.982l184.986 49.51-25.19-94.106c-5.581-20.787 7.629-42.496 29.542-48.282l415.232-111.309c21.914-5.888 44.134 6.195 49.766 27.085l152.064 567.501c5.53 20.787-7.68 42.496-29.594 48.282zM83.61 786.893l400.896 107.315 148.378-553.882-400.896-107.315-148.378 553.882zM802.714 27.494l-348.877 95.386 27.443 102.502 199.731 53.606c21.914 5.786 35.226 27.494 29.594 48.282l-77.21 288.102 304.486-83.507-135.168-504.371z" />
<glyph unicode="&#xe997;" glyph-name="drink" d="M897.946 837.683c20.173 27.904 23.654 83.917 23.654 83.917h-819.2c0 0 3.482-56.013 23.654-83.917l334.746-428.083v-307.2h-102.4c-102.4 0-102.4-102.4-102.4-102.4h512c0 0 0 102.4-102.4 102.4h-102.4v307.2l334.746 428.083zM481.28 665.6c0 45.312 36.659 81.92 81.92 81.92s81.92-36.608 81.92-81.92c0-45.21-36.659-81.92-81.92-81.92s-81.92 36.71-81.92 81.92z" />
<glyph unicode="&#xe998;" glyph-name="drive" d="M975.821 414.822l-162.355 405.862c-11.981 30.054-41.062 49.715-73.421 49.715h-456.090c-32.358 0-61.44-19.661-73.421-49.715l-162.355-405.862c-14.746-36.915-19.098-77.158-12.595-116.326l30.208-181.197c6.349-38.144 39.322-66.099 77.978-66.099h736.41c38.656 0 71.629 27.955 77.978 66.099l30.208 181.197c6.605 39.168 2.253 79.411-12.544 116.326zM868.301 192.256c-3.686-22.323-22.989-38.656-45.619-38.656h-621.363c-22.63 0-41.933 16.333-45.619 38.656l-18.688 112.282c-4.762 28.211 16.998 53.862 45.619 53.862h658.79c28.57 0 50.33-25.651 45.619-53.862l-18.739-112.282z" />
<glyph unicode="&#xe999;" glyph-name="drop" d="M522.394 944.077c-1.382 11.008-19.456 11.008-20.787 0-45.21-363.878-276.378-438.886-276.378-691.814 0-156.314 131.277-282.982 286.771-282.982 155.443 0 286.72 126.72 286.72 282.982 0 252.928-231.117 327.936-276.326 691.814zM478.72 541.798c-3.021-11.213-6.298-22.733-9.677-34.714-20.531-72.909-43.827-155.597-43.827-251.187 0-51.814-30.618-70.195-59.187-70.195-32.717 0-59.187 26.778-59.187 59.699 0 112.998 54.374 186.829 102.4 251.904 15.104 20.378 29.286 39.68 40.806 58.88 5.274 8.806 19.456 8.397 25.907-0.307 3.021-4.096 4.045-9.318 2.765-14.080z" />
<glyph unicode="&#xe99a;" glyph-name="edit" d="M899.123 847.923c-73.83 73.882-129.28 62.822-129.28 62.822l-656.691-656.64-51.712-243.814 243.866 51.712 656.691 656.538c-0.051 0 11.059 55.45-62.874 129.382zM290.816 91.29l-83.149-17.92c-7.987 15.002-17.664 30.003-35.328 47.718-17.715 17.715-32.717 27.29-47.718 35.379l17.92 83.098 24.064 24.013c0 0 45.21-0.922 96.307-52.019 51.046-50.995 52.019-96.307 52.019-96.307l-24.115-23.962z" />
<glyph unicode="&#xe99b;" glyph-name="email" d="M747.93 349.594c0-43.008 12.237-60.16 44.237-60.16 71.322 0 116.736 90.88 116.736 242.022 0 231.014-168.346 341.606-378.522 341.606-216.218 0-412.877-144.998-412.877-419.021 0-261.734 172.032-404.275 436.224-404.275 89.702 0 149.914 9.83 242.022 40.55l19.763-82.278c-90.931-29.542-188.109-38.093-263.014-38.093-346.522 0-532.122 190.464-532.122 484.147 0 296.141 215.091 497.664 511.232 497.664 308.429 0 471.808-184.32 471.808-410.419 0-191.693-60.16-337.92-249.395-337.92-86.067 0-142.541 34.406-149.914 110.643-22.118-84.787-81.101-110.643-161.024-110.643-106.906 0-196.608 82.381-196.608 248.218 0 167.117 78.694 270.336 220.006 270.336 74.957 0 121.651-29.491 142.438-76.186l35.686 65.126h103.219v-361.318h0.102zM596.838 511.795c0 67.533-50.432 95.846-92.211 95.846-45.466 0-95.795-36.813-95.795-144.998 0-86.016 38.093-133.939 95.795-133.939 40.55 0 92.211 25.805 92.211 97.075v86.016z" />
<glyph unicode="&#xe99c;" glyph-name="emoji-happy" d="M512 952.32c-271.462 0-491.52-220.058-491.52-491.52s220.058-491.52 491.52-491.52c271.411 0 491.52 220.058 491.52 491.571 0 271.411-220.109 491.469-491.52 491.469zM512 71.731c-214.886 0-389.12 174.182-389.12 389.12s174.182 389.069 389.12 389.069c214.886 0 389.171-174.182 389.171-389.12s-174.285-389.069-389.171-389.069zM384.051 473.6c42.394 0 76.749 40.090 76.749 89.6s-34.406 89.6-76.8 89.6-76.8-40.090-76.8-89.6 34.406-89.6 76.851-89.6zM640 473.6c42.445 0 76.8 40.090 76.8 89.6s-34.406 89.6-76.8 89.6-76.8-40.141-76.8-89.6 34.406-89.6 76.8-89.6zM734.259 392.397c-18.586 9.523-41.728 2.202-51.61-16.384-1.741-3.379-44.493-81.562-170.598-81.562-125.491 0-168.499 77.466-170.65 81.51-9.626 18.688-32.358 26.317-51.405 16.845-18.944-9.523-26.624-32.563-17.152-51.558 2.56-5.069 63.898-123.597 239.206-123.597 175.36 0 236.595 118.579 239.104 123.648 9.421 18.79 1.843 41.472-16.896 51.098z" />
<glyph unicode="&#xe99d;" glyph-name="emoji-neutral" d="M512 952.32c-271.462 0-491.52-220.058-491.52-491.52s220.058-491.52 491.52-491.52c271.411 0 491.52 220.058 491.52 491.571 0 271.411-220.109 491.469-491.52 491.469zM512 71.731c-214.886 0-389.12 174.182-389.12 389.12 0 214.886 174.182 389.12 389.12 389.12 214.886 0 389.12-174.182 389.12-389.12s-174.234-389.12-389.12-389.12zM640 652.749c-42.394 0-76.8-40.090-76.8-89.549s34.406-89.6 76.8-89.6c42.445 0 76.8 40.090 76.8 89.6s-34.355 89.549-76.8 89.549zM384.051 473.6c42.394 0 76.749 40.090 76.749 89.6s-34.406 89.6-76.8 89.6c-42.394 0-76.8-40.090-76.8-89.6s34.406-89.6 76.851-89.6zM665.6 345.6h-307.2c-21.197 0-38.4-17.203-38.4-38.4s17.203-38.4 38.4-38.4h307.2c21.197 0 38.4 17.203 38.4 38.4 0 21.248-17.152 38.4-38.4 38.4z" />
<glyph unicode="&#xe99e;" glyph-name="emoji-sad" d="M512.051 952.32c-271.514 0-491.571-220.058-491.571-491.52 0-271.514 220.058-491.571 491.571-491.571 271.411 0 491.52 220.058 491.52 491.571-0.051 271.462-220.16 491.52-491.52 491.52zM512 71.731c-214.886 0-389.12 174.182-389.12 389.12 0 214.886 174.182 389.12 389.12 389.12 214.886 0 389.12-174.182 389.12-389.12s-174.234-389.12-389.12-389.12zM640.051 473.6c42.394 0 76.8 40.090 76.8 89.6s-34.406 89.6-76.8 89.6c-42.394 0-76.8-40.090-76.8-89.6s34.355-89.6 76.8-89.6zM384.051 473.6c42.394 0 76.8 40.090 76.8 89.6s-34.406 89.6-76.8 89.6c-42.394 0-76.8-40.090-76.8-89.6s34.355-89.6 76.8-89.6zM512.102 396.8c-175.309 0-236.646-118.528-239.206-123.597-9.523-18.995-1.792-42.035 17.152-51.558 5.53-2.714 11.366-4.045 17.152-4.045 14.080 0 27.648 7.731 34.406 21.197 0.41 0.87 42.086 81.203 170.496 81.203 126.106 0 168.858-78.182 170.394-81.152 9.421-18.944 32.512-26.778 51.507-17.203 18.995 9.421 26.675 32.563 17.203 51.507-2.509 5.069-63.795 123.648-239.104 123.648z" />
<glyph unicode="&#xe99f;" glyph-name="erase" d="M921.6 819.2h-489.165c-22.528 0-54.835-12.083-71.782-26.88l-347.955-304.538c-16.947-14.797-16.947-39.117 0-53.914l347.955-304.486c16.947-14.797 49.254-26.982 71.782-26.982h489.165c56.32 0 102.4 46.080 102.4 102.4v512c0 56.32-46.080 102.4-102.4 102.4zM777.779 256l-130.918 130.918-130.867-130.918-73.882 73.882 130.867 130.918-130.867 130.918 73.882 73.882 130.918-130.816 130.816 130.816 73.933-73.882-130.867-130.918 130.918-130.816-73.933-73.984z" />
<glyph unicode="&#xe9a0;" glyph-name="eraser" d="M870.298 758.784l-161.485 124.16c-44.646 34.355-109.312 25.907-143.718-18.688l-430.080-557.926c-34.355-44.595-25.958-109.158 18.688-143.514l161.434-124.16c44.646-34.355 109.312-25.907 143.718 18.688l430.131 557.926c34.355 44.595 25.958 109.158-18.688 143.514zM437.658 129.69l-27.494-34.867c-7.782-10.086-19.712-15.872-32.717-15.872-6.349 0-15.821 1.485-24.832 8.397l-161.434 124.16c-8.602 6.605-14.080 16.23-15.514 27.136s1.434 21.606 8.038 30.157l27.494 34.867c7.782 10.086 19.712 15.923 32.768 15.923 6.349 0 15.821-1.485 24.832-8.397l161.485-124.16c8.602-6.605 14.080-16.23 15.514-27.136 1.331-10.906-1.536-21.606-8.141-30.208z" />
<glyph unicode="&#xe9a1;" glyph-name="export" d="M768 204.8h-665.6v460.8h132.864c0 0 35.277 45.875 111.104 102.4h-295.168c-28.314 0-51.2-22.989-51.2-51.2v-563.2c0-28.314 22.886-51.2 51.2-51.2h768c28.314 0 51.2 22.886 51.2 51.2v191.795l-102.4-84.224v-56.371zM684.083 560.64v-181.811l339.917 266.291-339.917 255.949v-160.307c-412.723 0-412.723-407.962-412.723-407.962 116.838 191.898 188.723 227.84 412.723 227.84z" />
<glyph unicode="&#xe9a2;" glyph-name="eye" d="M512 747.52c-335.923 0-512-247.398-512-286.72 0-39.219 176.077-286.72 512-286.72 335.872 0 512 247.501 512 286.72 0 39.322-176.128 286.72-512 286.72zM512 240.282c-125.696 0-227.584 98.714-227.584 220.518s101.888 220.621 227.584 220.621c125.696 0 227.533-98.816 227.533-220.621s-101.837-220.518-227.533-220.518zM512 460.8c-20.838 22.886 33.946 110.285 0 110.285-62.874 0-113.818-49.408-113.818-110.285s50.944-110.285 113.818-110.285c62.822 0 113.818 49.408 113.818 110.285 0 28.006-96.102-19.405-113.818 0z" />
<glyph unicode="&#xe9a3;" glyph-name="feather" d="M217.805-29.030c15.718 50.278 39.424 121.037 71.219 223.334 138.598 21.965 195.942-17.459 283.955 139.725-71.424-21.862-157.542 40.55-152.934 67.635 4.659 27.034 200.346-19.507 328.499 162.458-161.536-35.635-213.197 42.803-192.358 54.63 48.077 27.341 190.771 11.366 266.854 85.453 39.219 38.144 57.6 130.867 41.626 163.942-19.149 39.987-135.987 99.635-200.397 94.003-64.41-5.581-165.427-245.248-195.43-243.405-29.901 1.894-35.994 107.418 16.333 205.466-55.142-24.422-156.211-100.301-187.904-165.171-59.034-120.678 5.53-397.619-15.155-407.45-20.736-9.882-90.419 127.027-111.206 189.133-28.416-95.181-29.082-190.515 53.914-317.133-31.283-83.098-48.384-178.739-50.995-227.379-1.229-38.861 37.069-47.206 43.981-25.242z" />
<glyph unicode="&#xe9a4;" glyph-name="flag" d="M969.011 686.899c-478.157-694.682-314.47 13.312-718.694-325.478l91.904-361.421h-103.373l-187.648 737.792 94.72 33.997c453.069 331.315 216.474-297.984 800.614-64.205 18.637 7.526 33.536-4.608 22.477-20.685z" />
<glyph unicode="&#xe9a5;" glyph-name="flash" d="M348.314 0.102c-9.933 6.502 161.434 366.592 155.546 382.413-5.939 15.821-187.648 73.523-196.506 101.325-8.909 27.802 358.758 445.798 368.435 437.709 9.626-8.090-160.205-370.586-155.597-382.413 4.659-11.776 190.874-71.885 196.506-101.325 5.683-29.44-358.502-444.211-368.384-437.709z" />
<glyph unicode="&#xe9a6;" glyph-name="flashlight" d="M876.288 825.139c-85.811 85.811-193.485 117.146-227.789 82.842l-138.035-138.035c-20.941-20.992-39.219-91.085-30.822-161.997l-417.843-417.843c-24.781-24.781-4.71-84.992 44.851-134.605s109.875-69.581 134.605-44.902l417.843 417.894c70.963-8.397 141.056 9.882 161.997 30.771l138.035 138.086c34.304 34.304 2.97 142.029-82.842 227.789zM416.819 407.603c-19.098 19.046-12.851 56.115 13.773 82.79 26.675 26.675 63.795 32.922 82.842 13.824 19.046-18.995 12.851-56.166-13.824-82.79-26.675-26.726-63.744-32.922-82.79-13.824zM762.419 711.27c-66.458 66.406-83.098 154.112-77.21 160 5.888 5.939 90.112-14.182 156.621-80.64 66.458-66.458 86.426-150.835 80.64-156.621-5.734-5.734-93.645 10.752-160.051 77.261z" />
<glyph unicode="&#xe9a7;" glyph-name="flat-brush" d="M94.413 210.483c25.498-19.251 81.613 60.314 99.43 46.848s-41.984-90.214-27.034-101.478c14.95-11.264 77.466 63.437 94.822 50.381 17.306-13.056-41.114-90.829-22.374-105.011 18.79-14.182 79.974 61.542 94.822 50.33s-39.578-92.006-22.374-104.96c17.203-13.005 75.827 64.666 90.112 53.862 14.336-10.803-43.213-89.242-17.715-108.493 25.498-19.2 274.944 458.957 274.944 458.957l-198.451 150.477c0 0-391.68-371.712-366.182-390.912zM666.778 930.253l-172.134-263.987 210.995-159.181 225.075 217.395c-26.982 76.954-176.128 196.762-263.936 205.773z" />
<glyph unicode="&#xe9a8;" glyph-name="folder-images" d="M942.336 829.491c-5.734 22.528-33.587 40.909-61.952 40.909h-736.768c-28.416 0-56.269-18.381-61.952-40.909l-10.291-61.491h881.203l-10.24 61.491zM993.894 716.8h-963.84c-17.51 0-31.181-15.053-29.542-32.512l47.258-597.453c1.946-20.173 18.944-35.635 39.219-35.635h849.971c20.326 0 37.274 15.462 39.219 35.635l47.258 597.453c1.69 17.459-12.032 32.512-29.542 32.512zM636.826 544c26.522 0 48.026-21.504 48.026-48.026s-21.504-48.026-48.026-48.026-48.026 21.555-48.026 48.077c0 26.47 21.504 47.974 48.026 47.974zM281.6 256l127.283 292.557 144.742-234.291 124.109 61.645 64.666-119.91h-460.8z" />
<glyph unicode="&#xe9a9;" glyph-name="folder-music" d="M942.336 829.491c-5.734 22.528-33.587 40.909-61.952 40.909h-736.768c-28.416 0-56.269-18.381-61.952-40.909l-10.291-61.491h881.203l-10.24 61.491zM993.894 716.8h-963.84c-17.51 0-31.181-15.053-29.542-32.512l47.258-597.453c1.946-20.173 18.944-35.635 39.219-35.635h849.971c20.326 0 37.274 15.462 39.219 35.635l47.258 597.453c1.69 17.459-12.032 32.512-29.542 32.512zM611.43 331.725c-6.554-13.568-13.21-14.285-10.342 0 7.475 36.915 2.406 116.173-53.402 124.979v-168.653c0-34.509-15.923-64.614-58.163-78.234-41.062-13.107-86.989 0.563-97.69 30.003-10.752 29.491 13.363 65.331 53.862 80.077 22.63 8.243 48.845 10.394 66.509 3.584v239.718h35.533c-0.051-83.61 144.282-65.28 63.693-231.475z" />
</font>
</defs>
</svg>
